<?xml version="1.0" standalone="no"?>
<!DOCTYPE svg PUBLIC "-//W3C//DTD SVG 1.1//EN" "http://www.w3.org/Graphics/SVG/1.1/DTD/svg11.dtd" >
<svg>
<metadata>
Created by FontForge 20090914 at Tue Nov 21 07:43:50 2017
 By www-data
Copyright (c) 2012 by atipo. All rights reserved.
</metadata>
<defs>
<font id="Bariol-Regular" horiz-adv-x="518" >
  <font-face 
    font-family="Bariol Regular"
    font-weight="400"
    font-stretch="normal"
    units-per-em="1000"
    panose-1="2 0 5 6 4 0 0 2 0 3"
    ascent="787"
    descent="-213"
    x-height="453.999"
    cap-height="681"
    bbox="-166 -252.002 1036 1016"
    underline-thickness="20"
    underline-position="-133"
    unicode-range="U+0020-U+FB06"
  />
<missing-glyph horiz-adv-x="580" 
d="M309 124h-55v55h55v-55zM305 229l-47 -0.000976562v39c0 24.667 5.5 47.334 16.5 68.001s23.167 36.667 36.5 48s25.5 25 36.5 41s16.5 32.333 16.5 49c0 22 -7.33301 39.167 -22 51.5s-32.667 18.5 -54 18.5c-52.667 0 -79 -27 -79 -81h-48
c0 44 11.833 76.833 35.5 98.5s54.5 32.5 92.5 32.5c36.667 0 66.667 -10 90 -30s35 -48.667 35 -86c0 -19.333 -3.66699 -36.833 -11 -52.5s-16.333 -29 -27 -40l-32.5 -32c-11 -10.333 -20.167 -22.833 -27.5 -37.5s-11 -30.667 -11 -48v-39zM88 47.999h404v603h-404v-603
zM40 699.999h500v-700h-500v700z" />
    <glyph glyph-name="ellipsis" unicode="&#x2e;&#x2e;&#x2e;" horiz-adv-x="703" 
d="M80 -8c-31.333 0 -47 15.667 -47 47c0 32 15.667 48 47 48s47 -16 47 -48c0 -31.333 -15.667 -47 -47 -47zM351 -8c-31.333 0 -47 15.667 -47 47c0 32 15.667 48 47 48s47 -16 47 -48c0 -31.333 -15.667 -47 -47 -47zM623 -8c-31.333 0 -47 15.667 -47 47
c0 32 15.667 48 47 48s47 -16 47 -48c0 -31.333 -15.667 -47 -47 -47z" />
    <glyph glyph-name="f_f" unicode="ff" horiz-adv-x="556" 
d="M352 394l-203 0.00390625v-370c0 -9.33301 -3.16699 -17 -9.5 -23s-13.833 -9 -22.5 -9s-16.167 3 -22.5 9s-9.5 13.667 -9.5 23v370h-34c-8.66699 0 -15.834 2.83301 -21.501 8.5s-8.5 12.834 -8.5 21.501s2.83301 15.834 8.5 21.501s12.834 8.5 21.501 8.5h34v59
c0 49.333 14.5 90.333 43.5 123s72.167 49 129.5 49c8.66699 0 15.834 -2.83301 21.501 -8.5s8.5 -12.834 8.5 -21.501s-2.83301 -15.834 -8.5 -21.501s-12.834 -8.5 -21.501 -8.5c-37.333 0 -64.833 -10 -82.5 -30s-26.5 -47.333 -26.5 -82v-59h203v59
c0 49.333 14.5 90.333 43.5 123s72.167 49 129.5 49c8.66699 0 15.834 -2.83301 21.501 -8.5s8.5 -12.834 8.5 -21.501s-2.83301 -15.834 -8.5 -21.501s-12.834 -8.5 -21.501 -8.5c-37.333 0 -64.833 -10 -82.5 -30s-26.5 -47.333 -26.5 -82v-59h91
c8.66699 0 15.834 -2.83301 21.501 -8.5s8.5 -12.834 8.5 -21.501s-2.83301 -15.834 -8.5 -21.501s-12.834 -8.5 -21.501 -8.5h-91v-370c0 -9.33301 -3 -17 -9 -23s-13.667 -9 -23 -9s-17 3 -23 9s-9 13.667 -9 23v370z" />
    <glyph glyph-name="fi" unicode="fi" horiz-adv-x="472" 
d="M85 394l-33.999 -0.00195312c-8.66699 0 -15.834 2.83301 -21.501 8.5s-8.5 12.834 -8.5 21.501s2.83301 15.834 8.5 21.501s12.834 8.5 21.501 8.5h34v59c0 49.333 14.5 90.333 43.5 123s72.167 49 129.5 49c44 0 79.333 -7.33301 106 -22
c12 -7.33301 18 -16.666 18 -27.999c0 -8.66699 -2.83301 -15.834 -8.5 -21.501s-12.834 -8.5 -21.501 -8.5c-3.33301 0 -10.333 2 -21 6c-26 9.33301 -50.333 14 -73 14c-37.333 0 -64.833 -10 -82.5 -30s-26.5 -47.333 -26.5 -82v-59h226c8.66699 0 16.167 -3 22.5 -9
s9.5 -13.667 9.5 -23v-398c0 -9.33301 -3.16699 -17 -9.5 -23s-13.833 -9 -22.5 -9s-16.167 3 -22.5 9s-9.5 13.667 -9.5 23v370h-194v-370c0 -9.33301 -3.16699 -17 -9.5 -23s-13.833 -9 -22.5 -9s-16.167 3 -22.5 9s-9.5 13.667 -9.5 23v370z" />
    <glyph glyph-name="fl" unicode="fl" horiz-adv-x="497" 
d="M85 394l-34 -0.000976562c-8.66699 0 -15.834 2.83301 -21.501 8.5s-8.5 12.834 -8.5 21.501s2.83301 15.834 8.5 21.501s12.834 8.5 21.501 8.5h34v59c0 49.333 14.5 90.333 43.5 123s72.167 49 129.5 49c50 0 92.333 -8.66699 127 -26
c14.667 -7.33301 22 -17.666 22 -30.999v-519c0 -38 13.333 -57 40 -57c8 0 15 -2.83301 21 -8.5s9 -12.834 9 -21.501s-3 -15.834 -9 -21.501s-13 -8.5 -21 -8.5c-69.333 0 -104 39 -104 117v285h-194v-370c0 -9.33301 -3.16699 -17 -9.5 -23s-13.833 -9 -22.5 -9
s-16.167 3 -22.5 9s-9.5 13.667 -9.5 23v370zM149 512.999l-0.000976562 -59h194v156c-27.333 10 -55.666 15 -84.999 15c-37.333 0 -64.833 -10 -82.5 -30s-26.5 -47.333 -26.5 -82z" />
    <glyph glyph-name="f_f_i" unicode="ffi" horiz-adv-x="739" 
d="M352 394h-203v-370c0 -9.33301 -3.16699 -17 -9.5 -23s-13.833 -9 -22.5 -9s-16.167 3 -22.5 9s-9.5 13.667 -9.5 23v370h-34c-8.66699 0 -15.834 2.83301 -21.501 8.5s-8.5 12.834 -8.5 21.501s2.83301 15.834 8.5 21.501s12.834 8.5 21.501 8.5h34v59
c0 49.333 14.5 90.333 43.5 123s72.167 49 129.5 49c8.66699 0 15.834 -2.83301 21.501 -8.5s8.5 -12.834 8.5 -21.501s-2.83301 -15.834 -8.5 -21.501s-12.834 -8.5 -21.501 -8.5c-37.333 0 -64.833 -10 -82.5 -30s-26.5 -47.333 -26.5 -82v-59h203v59
c0 49.333 14.5 90.333 43.5 123s72.167 49 129.5 49c44 0 79.333 -7.33301 106 -22c12 -7.33301 18 -16.666 18 -27.999c0 -8.66699 -2.83301 -15.834 -8.5 -21.501s-12.834 -8.5 -21.501 -8.5c-3.33301 0 -10.333 2 -21 6c-25.333 9.33301 -49.666 14 -72.999 14
c-37.333 0 -64.833 -10 -82.5 -30s-26.5 -47.333 -26.5 -82v-59h226c9.33301 0 17 -3 23 -9s9 -13.667 9 -23v-398c0 -9.33301 -3 -17 -9 -23s-13.667 -9 -23 -9s-17 3 -23 9s-9 13.667 -9 23v370h-194v-370c0 -9.33301 -3 -17 -9 -23s-13.667 -9 -23 -9s-17 3 -23 9
s-9 13.667 -9 23v370z" />
    <glyph glyph-name="f_f_l" unicode="ffl" horiz-adv-x="764" 
d="M352 394l-203 0.000976562v-370c0 -9.33301 -3.16699 -17 -9.5 -23s-13.833 -9 -22.5 -9s-16.167 3 -22.5 9s-9.5 13.667 -9.5 23v370h-34c-8.66699 0 -15.834 2.83301 -21.501 8.5s-8.5 12.834 -8.5 21.501s2.83301 15.834 8.5 21.501s12.834 8.5 21.501 8.5h34v59
c0 49.333 14.5 90.333 43.5 123s72.167 49 129.5 49c8.66699 0 15.834 -2.83301 21.501 -8.5s8.5 -12.834 8.5 -21.501s-2.83301 -15.834 -8.5 -21.501s-12.834 -8.5 -21.501 -8.5c-37.333 0 -64.833 -10 -82.5 -30s-26.5 -47.333 -26.5 -82v-59h203v59
c0 49.333 14.5 90.333 43.5 123s72.167 49 129.5 49c50 0 92.333 -8.66699 127 -26c14.667 -7.33301 22 -17.666 22 -30.999v-519c0 -38 13.333 -57 40 -57c8 0 15 -2.83301 21 -8.5s9 -12.834 9 -21.501s-3 -15.834 -9 -21.501s-13 -8.5 -21 -8.5
c-69.333 0 -104 39 -104 117v285h-194v-370c0 -9.33301 -3 -17 -9 -23s-13.667 -9 -23 -9s-17 3 -23 9s-9 13.667 -9 23v370zM416 513.001l-0.000976562 -59h194v156c-27.333 10 -55.666 15 -84.999 15c-37.333 0 -64.833 -10 -82.5 -30s-26.5 -47.333 -26.5 -82z" />
    <glyph glyph-name="f_j" unicode="fj" horiz-adv-x="472" 
d="M343 -35l0.000976562 428.998h-194v-370c0 -9.33301 -3.16699 -17 -9.5 -23s-13.833 -9 -22.5 -9s-16.167 3 -22.5 9s-9.5 13.667 -9.5 23v370h-34c-8.66699 0 -15.834 2.83301 -21.501 8.5s-8.5 12.834 -8.5 21.501s2.83301 15.834 8.5 21.501s12.834 8.5 21.501 8.5h34
v59c0 49.333 14.5 90.333 43.5 123s72.167 49 129.5 49c44 0 79.333 -7.33301 106 -22c12 -7.33301 18 -16.666 18 -27.999c0 -8.66699 -2.83301 -15.834 -8.5 -21.501s-12.834 -8.5 -21.501 -8.5c-3.33301 0 -10.333 2 -21 6c-26 9.33301 -50.333 14 -73 14
c-37.333 0 -64.833 -10 -82.5 -30s-26.5 -47.333 -26.5 -82v-59h226c8.66699 0 16.167 -3 22.5 -9s9.5 -13.667 9.5 -23v-457c0 -42.667 -13.833 -78.334 -41.5 -107.001s-62.5 -43 -104.5 -43c-8.66699 0 -15.834 2.83301 -21.501 8.5s-8.5 12.834 -8.5 21.501
s2.83301 15.834 8.5 21.501s12.834 8.5 21.501 8.5c24 0 43.667 8.66699 59 26s23 38.666 23 63.999z" />
    <glyph glyph-name="f_b" unicode="fb" horiz-adv-x="779" 
d="M407 322l0.000976562 -137.999c0 -46 12 -80.667 36 -104s56 -35 96 -35c94 0 141 61 141 183c0 121.333 -47 182 -141 182c-17.333 0 -33.833 -3 -49.5 -9s-28.334 -13.333 -38.001 -22s-18 -17.334 -25 -26.001s-11.833 -16 -14.5 -22zM343.001 184.001
l-0.000976562 425.999c-27.333 10 -55.666 15 -84.999 15c-37.333 0 -64.833 -10 -82.5 -30s-26.5 -47.333 -26.5 -82v-59h91c8.66699 0 15.834 -2.83301 21.501 -8.5s8.5 -12.834 8.5 -21.501s-2.83301 -15.834 -8.5 -21.501s-12.834 -8.5 -21.501 -8.5h-91v-370
c0 -9.33301 -3.16699 -17 -9.5 -23s-13.833 -9 -22.5 -9s-16.167 3 -22.5 9s-9.5 13.667 -9.5 23v370h-34c-8.66699 0 -15.834 2.83301 -21.501 8.5s-8.5 12.834 -8.5 21.501s2.83301 15.834 8.5 21.501s12.834 8.5 21.501 8.5h34v59c0 49.333 14.5 90.333 43.5 123
s72.167 49 129.5 49c50 0 92.333 -8.66699 127 -26c14.667 -7.33301 22 -17.666 22 -30.999v-225c12.667 18 31 33.333 55 46s51 19 81 19c134 0 201 -80 201 -240c0 -80.667 -17.667 -141 -53 -181s-86 -60 -152 -60c-59.333 0 -106.833 16.833 -142.5 50.5
s-53.5 82.5 -53.5 146.5z" />
    <glyph glyph-name="f_f_b" unicode="ffb" horiz-adv-x="1046" 
d="M610 184l-0.000976562 426.001c-27.333 10 -55.666 15 -84.999 15c-37.333 0 -64.833 -10 -82.5 -30s-26.5 -47.333 -26.5 -82v-59h91c8.66699 0 15.834 -2.83301 21.501 -8.5s8.5 -12.834 8.5 -21.501s-2.83301 -15.834 -8.5 -21.501s-12.834 -8.5 -21.501 -8.5h-91
v-370c0 -9.33301 -3 -17 -9 -23s-13.667 -9 -23 -9s-17 3 -23 9s-9 13.667 -9 23v370h-203v-370c0 -9.33301 -3.16699 -17 -9.5 -23s-13.833 -9 -22.5 -9s-16.167 3 -22.5 9s-9.5 13.667 -9.5 23v370h-34c-8.66699 0 -15.834 2.83301 -21.501 8.5s-8.5 12.834 -8.5 21.501
s2.83301 15.834 8.5 21.501s12.834 8.5 21.501 8.5h34v59c0 49.333 14.5 90.333 43.5 123s72.167 49 129.5 49c8.66699 0 15.834 -2.83301 21.501 -8.5s8.5 -12.834 8.5 -21.501s-2.83301 -15.834 -8.5 -21.501s-12.834 -8.5 -21.501 -8.5c-37.333 0 -64.833 -10 -82.5 -30
s-26.5 -47.333 -26.5 -82v-59h203v59c0 49.333 14.5 90.333 43.5 123s72.167 49 129.5 49c50 0 92.333 -8.66699 127 -26c14.667 -7.33301 22 -17.666 22 -30.999v-225c12.667 18 31 33.333 55 46s51 19 81 19c134 0 201 -80 201 -240c0 -80.667 -17.667 -141 -53 -181
s-86 -60 -152 -60c-59.333 0 -106.833 16.833 -142.5 50.5s-53.5 82.5 -53.5 146.5zM673.999 322.001l0.000976562 -137.999c0 -46 12 -80.667 36 -104s56 -35 96 -35c94 0 141 61 141 183c0 121.333 -47 182 -141 182c-17.333 0 -33.833 -3 -49.5 -9
s-28.334 -13.333 -38.001 -22s-18 -17.334 -25 -26.001s-12.167 -16 -15.5 -22z" />
    <glyph glyph-name="f_h" unicode="fh" horiz-adv-x="779" 
d="M343 24l-0.00195312 585.999c-27.333 10 -55.666 15 -84.999 15c-37.333 0 -64.833 -10 -82.5 -30s-26.5 -47.333 -26.5 -82v-59h91c8.66699 0 15.834 -2.83301 21.501 -8.5s8.5 -12.834 8.5 -21.501s-2.83301 -15.834 -8.5 -21.501s-12.834 -8.5 -21.501 -8.5h-91v-370
c0 -9.33301 -3.16699 -17 -9.5 -23s-13.833 -9 -22.5 -9s-16.167 3 -22.5 9s-9.5 13.667 -9.5 23v370h-34c-8.66699 0 -15.834 2.83301 -21.501 8.5s-8.5 12.834 -8.5 21.501s2.83301 15.834 8.5 21.501s12.834 8.5 21.501 8.5h34v59c0 49.333 14.5 90.333 43.5 123
s72.167 49 129.5 49c50 0 92.333 -8.66699 127 -26c14.667 -7.33301 22 -17.666 22 -30.999v-230c10 20 26.833 36.667 50.5 50s51.167 20 82.5 20c122.667 0 184 -59 184 -177v-267c0 -9.33301 -3 -17 -9 -23s-13.667 -9 -23 -9s-17 3 -23 9s-9 13.667 -9 23v254
c0 43.333 -8.66699 76.333 -26 99s-48.666 34 -93.999 34c-88.667 0 -133 -46.667 -133 -140v-247c0 -9.33301 -3.16699 -17 -9.5 -23s-13.833 -9 -22.5 -9s-16.167 3 -22.5 9s-9.5 13.667 -9.5 23z" />
    <glyph glyph-name="f_f_h" unicode="ffh" horiz-adv-x="1046" 
d="M610 24l-0.00195312 586.001c-27.333 10 -55.666 15 -84.999 15c-37.333 0 -64.833 -10 -82.5 -30s-26.5 -47.333 -26.5 -82v-59h91c8.66699 0 15.834 -2.83301 21.501 -8.5s8.5 -12.834 8.5 -21.501s-2.83301 -15.834 -8.5 -21.501s-12.834 -8.5 -21.501 -8.5h-91v-370
c0 -9.33301 -3 -17 -9 -23s-13.667 -9 -23 -9s-17 3 -23 9s-9 13.667 -9 23v370h-203v-370c0 -9.33301 -3.16699 -17 -9.5 -23s-13.833 -9 -22.5 -9s-16.167 3 -22.5 9s-9.5 13.667 -9.5 23v370h-34c-8.66699 0 -15.834 2.83301 -21.501 8.5s-8.5 12.834 -8.5 21.501
s2.83301 15.834 8.5 21.501s12.834 8.5 21.501 8.5h34v59c0 49.333 14.5 90.333 43.5 123s72.167 49 129.5 49c8.66699 0 15.834 -2.83301 21.501 -8.5s8.5 -12.834 8.5 -21.501s-2.83301 -15.834 -8.5 -21.501s-12.834 -8.5 -21.501 -8.5c-37.333 0 -64.833 -10 -82.5 -30
s-26.5 -47.333 -26.5 -82v-59h203v59c0 49.333 14.5 90.333 43.5 123s72.167 49 129.5 49c50 0 92.333 -8.66699 127 -26c14.667 -7.33301 22 -17.666 22 -30.999v-230c10 20 26.833 36.667 50.5 50s51.167 20 82.5 20c122.667 0 184 -59 184 -177v-267
c0 -9.33301 -3.16699 -17 -9.5 -23s-13.833 -9 -22.5 -9s-16.167 3 -22.5 9s-9.5 13.667 -9.5 23v254c0 43.333 -8.66699 76.333 -26 99s-48.666 34 -93.999 34c-88.667 0 -133 -46.667 -133 -140v-247c0 -9.33301 -3 -17 -9 -23s-13.667 -9 -23 -9s-17 3 -23 9
s-9 13.667 -9 23z" />
    <glyph glyph-name="f_k" unicode="fk" horiz-adv-x="731" 
d="M343 24l-0.000976562 586c-27.333 10 -55.666 15 -84.999 15c-37.333 0 -64.833 -10 -82.5 -30s-26.5 -47.333 -26.5 -82v-59h91c8.66699 0 15.834 -2.83301 21.501 -8.5s8.5 -12.834 8.5 -21.501s-2.83301 -15.834 -8.5 -21.501s-12.834 -8.5 -21.501 -8.5h-91v-370
c0 -9.33301 -3.16699 -17 -9.5 -23s-13.833 -9 -22.5 -9s-16.167 3 -22.5 9s-9.5 13.667 -9.5 23v370h-34c-8.66699 0 -15.834 2.83301 -21.501 8.5s-8.5 12.834 -8.5 21.501s2.83301 15.834 8.5 21.501s12.834 8.5 21.501 8.5h34v59c0 49.333 14.5 90.333 43.5 123
s72.167 49 129.5 49c50 0 92.333 -8.66699 127 -26c14.667 -7.33301 22 -17.666 22 -30.999v-367l236 193c6 5.33301 13.333 8 22 8s16.167 -3 22.5 -9s9.5 -13.667 9.5 -23c0 -10.667 -4.33301 -19.334 -13 -26.001l-164 -131l178 -229c4.66699 -5.33301 7 -12 7 -20
c0 -9.33301 -3.16699 -17 -9.5 -23s-13.833 -9 -22.5 -9c-10.667 0 -20 5 -28 15l-177 227l-61 -49v-161c0 -9.33301 -3.16699 -17 -9.5 -23s-13.833 -9 -22.5 -9s-16.167 3 -22.5 9s-9.5 13.667 -9.5 23z" />
    <glyph glyph-name="f_f_k" unicode="ffk" horiz-adv-x="998" 
d="M674 628l-0.000976562 -366.998l236 193c6 5.33301 13.333 8 22 8c9.33301 0 17 -3 23 -9s9 -13.667 9 -23c0 -10.667 -4.33301 -19.334 -13 -26.001l-164 -131l178 -229c4.66699 -5.33301 7 -12 7 -20c0 -9.33301 -3 -17 -9 -23s-13.667 -9 -23 -9
c-10.667 0 -20 5 -28 15l-177 227l-61 -49v-161c0 -9.33301 -3 -17 -9 -23s-13.667 -9 -23 -9s-17 3 -23 9s-9 13.667 -9 23v586c-27.333 10 -55.666 15 -84.999 15c-37.333 0 -64.833 -10 -82.5 -30s-26.5 -47.333 -26.5 -82v-59h91c8.66699 0 15.834 -2.83301 21.501 -8.5
s8.5 -12.834 8.5 -21.501s-2.83301 -15.834 -8.5 -21.501s-12.834 -8.5 -21.501 -8.5h-91v-370c0 -9.33301 -3 -17 -9 -23s-13.667 -9 -23 -9s-17 3 -23 9s-9 13.667 -9 23v370h-203v-370c0 -9.33301 -3.16699 -17 -9.5 -23s-13.833 -9 -22.5 -9s-16.167 3 -22.5 9
s-9.5 13.667 -9.5 23v370h-34c-8.66699 0 -15.834 2.83301 -21.501 8.5s-8.5 12.834 -8.5 21.501s2.83301 15.834 8.5 21.501s12.834 8.5 21.501 8.5h34v59c0 49.333 14.5 90.333 43.5 123s72.167 49 129.5 49c8.66699 0 15.834 -2.83301 21.501 -8.5
s8.5 -12.834 8.5 -21.501s-2.83301 -15.834 -8.5 -21.501s-12.834 -8.5 -21.501 -8.5c-37.333 0 -64.833 -10 -82.5 -30s-26.5 -47.333 -26.5 -82v-59h203v59c0 49.333 14.5 90.333 43.5 123s72.167 49 129.5 49c50 0 92.333 -8.66699 127 -26
c14.667 -7.33301 22 -17.666 22 -30.999z" />
    <glyph glyph-name="f_f_j" unicode="ffj" horiz-adv-x="739" 
d="M610 -35v429h-194v-370c0 -9.33301 -3 -17 -9 -23s-13.667 -9 -23 -9s-17 3 -23 9s-9 13.667 -9 23v370h-203v-370c0 -9.33301 -3.16699 -17 -9.5 -23s-13.833 -9 -22.5 -9s-16.167 3 -22.5 9s-9.5 13.667 -9.5 23v370h-34c-8.66699 0 -15.834 2.83301 -21.501 8.5
s-8.5 12.834 -8.5 21.501s2.83301 15.834 8.5 21.501s12.834 8.5 21.501 8.5h34v59c0 49.333 14.5 90.333 43.5 123s72.167 49 129.5 49c8.66699 0 15.834 -2.83301 21.501 -8.5s8.5 -12.834 8.5 -21.501s-2.83301 -15.834 -8.5 -21.501s-12.834 -8.5 -21.501 -8.5
c-37.333 0 -64.833 -10 -82.5 -30s-26.5 -47.333 -26.5 -82v-59h203v59c0 49.333 14.5 90.333 43.5 123s72.167 49 129.5 49c44 0 79.333 -7.33301 106 -22c12 -7.33301 18 -16.666 18 -27.999c0 -8.66699 -2.83301 -15.834 -8.5 -21.501s-12.834 -8.5 -21.501 -8.5
c-3.33301 0 -10.333 2 -21 6c-25.333 9.33301 -49.666 14 -72.999 14c-37.333 0 -64.833 -10 -82.5 -30s-26.5 -47.333 -26.5 -82v-59h226c9.33301 0 17 -3 23 -9s9 -13.667 9 -23v-457c0 -42.667 -13.833 -78.334 -41.5 -107.001s-62.5 -43 -104.5 -43
c-8.66699 0 -15.834 2.83301 -21.501 8.5s-8.5 12.834 -8.5 21.501s2.83301 15.834 8.5 21.501s12.834 8.5 21.501 8.5c24 0 43.667 8.66699 59 26s23 38.666 23 63.999z" />
    <glyph glyph-name=".notdef" horiz-adv-x="580" 
d="M309 124h-55v55h55v-55zM305 229l-47 -0.000976562v39c0 24.667 5.5 47.334 16.5 68.001s23.167 36.667 36.5 48s25.5 25 36.5 41s16.5 32.333 16.5 49c0 22 -7.33301 39.167 -22 51.5s-32.667 18.5 -54 18.5c-52.667 0 -79 -27 -79 -81h-48
c0 44 11.833 76.833 35.5 98.5s54.5 32.5 92.5 32.5c36.667 0 66.667 -10 90 -30s35 -48.667 35 -86c0 -19.333 -3.66699 -36.833 -11 -52.5s-16.333 -29 -27 -40l-32.5 -32c-11 -10.333 -20.167 -22.833 -27.5 -37.5s-11 -30.667 -11 -48v-39zM88 47.999h404v603h-404v-603
zM40 699.999h500v-700h-500v700z" />
    <glyph glyph-name="space" unicode=" " horiz-adv-x="238" 
 />
    <glyph glyph-name="exclam" unicode="!" horiz-adv-x="208" 
d="M104 681c24 0 35.667 -11.667 35 -35l-15 -471c0 -12 -6.66699 -18 -20 -18s-20 6 -20 18l-15 471c-0.666992 23.333 11 35 35 35zM104 -8c-31.333 0 -47 15.667 -47 47c0 32 15.667 48 47 48s47 -16 47 -48c0 -31.333 -15.667 -47 -47 -47z" />
    <glyph glyph-name="quotedbl" unicode="&#x22;" horiz-adv-x="280" 
d="M84 681c10 0 17.3311 -2.5 21.998 -7.5s6.66699 -11.5 6 -19.5l-9 -172c-1.33301 -11.333 -7.66602 -17 -18.999 -17s-17.666 5.66699 -18.999 17l-9 172c-0.666992 8 1.33301 14.5 6 19.5s12 7.5 22 7.5zM195.998 681c10 0 17.3311 -2.5 21.998 -7.5
s6.66699 -11.5 6 -19.5l-9 -172c-1.33301 -11.333 -7.66602 -17 -18.999 -17s-17.666 5.66699 -18.999 17l-9 172c-0.666992 8 1.33301 14.5 6 19.5s12 7.5 22 7.5z" />
    <glyph glyph-name="numbersign" unicode="#" horiz-adv-x="550" 
d="M104 23l29 189h-63c-6.66699 0 -12.334 2.33301 -17.001 7s-7 10.334 -7 17.001s2.33301 12.334 7 17.001s10.334 7 17.001 7h71l21 136h-70c-6.66699 0 -12.334 2.33301 -17.001 7s-7 10.334 -7 17.001s2.33301 12.334 7 17.001s10.334 7 17.001 7h78l28 187
c2.66699 14 11 21 25 21c7.33301 0 13.333 -2.33301 18 -7s7 -10.667 7 -18c0 -2.66699 -0.333008 -5.66699 -1 -9l-26 -174h139l28 187c2.66699 14 11 21 25 21c7.33301 0 13.333 -2.33301 18 -7s7 -10.667 7 -18c0 -2.66699 -0.333008 -5.66699 -1 -9l-26 -174h69
c6.66699 0 12.334 -2.33301 17.001 -7s7 -10.334 7 -17.001s-2.33301 -12.334 -7 -17.001s-10.334 -7 -17.001 -7h-77l-21 -136h76c6.66699 0 12.334 -2.33301 17.001 -7s7 -10.334 7 -17.001s-2.33301 -12.334 -7 -17.001s-10.334 -7 -17.001 -7h-84l-31 -202
c-2 -14 -10.333 -21 -25 -21c-6.66699 0 -12.5 2.5 -17.5 7.5s-7.5 10.833 -7.5 17.5c0 2.66699 0.333008 5.66699 1 9l29 189h-139l-31 -202c-2 -14 -10.333 -21 -25 -21c-6.66699 0 -12.5 2.5 -17.5 7.5s-7.5 10.833 -7.5 17.5c0 2.66699 0.333008 5.66699 1 9zM213 396
l-21 -136h139l21 136h-139z" />
    <glyph glyph-name="dollar" unicode="$" horiz-adv-x="558" 
d="M443 546c-42.667 52.667 -96.668 79.001 -162.001 79.001c-49.333 0 -85.833 -10.333 -109.5 -31s-35.5 -46.667 -35.5 -78c0 -30 13 -54.833 39 -74.5s57.5 -35.334 94.5 -47.001s74 -24.667 111 -39s68.5 -36 94.5 -65s39 -65.833 39 -110.5
c0 -58 -18 -103.5 -54 -136.5s-87.667 -51.833 -155 -56.5v-75c0 -6.66699 -2.5 -12.667 -7.5 -18s-11.167 -8 -18.5 -8s-13.5 2.66699 -18.5 8s-7.5 11.333 -7.5 18v75c-49.333 2.66699 -92.666 15.5 -129.999 38.5s-64.666 50.833 -81.999 83.5
c-3.33301 6.66699 -5 12.667 -5 18c0 8.66699 3 16.167 9 22.5s13.667 9.5 23 9.5c12 0 21.333 -5.33301 28 -16c38.667 -63.333 98 -95 178 -95c55.333 0 97.833 11.167 127.5 33.5s44.5 55.166 44.5 98.499c0 28.667 -9.33301 53 -28 73s-42 34.833 -70 44.5l-91 32
c-32.667 11.667 -63 23.5 -91 35.5s-51.333 31 -70 57s-28 57.333 -28 94c0 45.333 15.667 83.833 47 115.5s77.333 49.834 138 54.501v76c0 6.66699 2.5 12.667 7.5 18s11.167 8 18.5 8s13.5 -2.66699 18.5 -8s7.5 -11.333 7.5 -18v-76c84 -6 147.333 -40 190 -102
c4 -6 6 -12.333 6 -19c0 -8.66699 -3.16699 -16.167 -9.5 -22.5s-13.833 -9.5 -22.5 -9.5c-10.667 0 -19.334 4.33301 -26.001 13z" />
    <glyph glyph-name="percent" unicode="%" horiz-adv-x="746" 
d="M535 681c7.33301 0 13.333 -2.5 18 -7.5s7 -10.833 7 -17.5c0 -4 -0.666992 -7.33301 -2 -10l-326 -641c-4 -8.66699 -11.333 -13 -22 -13c-6.66699 0 -12.5 2.33301 -17.5 7s-7.5 10.667 -7.5 18c0 4 0.666992 7.33301 2 10l326 641c4.66699 8.66699 12 13 22 13z
M188 407c64.667 0 97 39 97 117s-32.333 117 -97 117c-64 0 -96 -39 -96 -117s32 -117 96 -117zM188 687c51.333 0 88.666 -14.833 111.999 -44.5s35 -69.167 35 -118.5s-11.667 -88.833 -35 -118.5s-60.666 -44.5 -111.999 -44.5c-50.667 0 -87.667 14.833 -111 44.5
s-35 69.167 -35 118.5s11.667 88.833 35 118.5s60.333 44.5 111 44.5zM558 33c64.667 0 97 39 97 117s-32.333 117 -97 117c-64 0 -96 -39 -96 -117s32 -117 96 -117zM558 313c51.333 0 88.666 -14.833 111.999 -44.5s35 -69.167 35 -118.5s-11.667 -88.833 -35 -118.5
s-60.666 -44.5 -111.999 -44.5c-50.667 0 -87.667 14.833 -111 44.5s-35 69.167 -35 118.5s11.667 88.833 35 118.5s60.333 44.5 111 44.5z" />
    <glyph glyph-name="ampersand" unicode="&#x26;" horiz-adv-x="616" 
d="M172 533c0 -52 10.999 -98.9971 32.999 -140.997c32 21.333 59.167 47.166 81.5 77.499s33.5 58.166 33.5 83.499c0 24 -6.66699 42.667 -20 56s-30 20 -50 20c-25.333 0 -44.666 -8.83301 -57.999 -26.5s-20 -40.834 -20 -69.501zM391.999 93.0029
c-50.667 39.333 -92.166 74.833 -124.499 106.5s-59.833 66.167 -82.5 103.5c-51.333 -33.333 -77 -76 -77 -128c0 -39.333 14.667 -71 44 -95s64.666 -36 105.999 -36c51.333 0 96 16.333 134 49zM444 53.0029c-49.333 -44.667 -111.332 -66.9961 -185.999 -66.9961
c-62 0 -113.167 16.667 -153.5 50s-60.5 79.666 -60.5 138.999c0 69.333 36.667 130.333 110 183c-30.667 57.333 -46 115.666 -46 174.999c0 44.667 12.667 81.5 38 110.5s60 43.5 104 43.5c39.333 0 71.5 -12 96.5 -36s37.5 -56.667 37.5 -98
c0 -40 -12.667 -76.333 -38 -109s-62.333 -67.334 -111 -104.001c41.333 -65.333 107.666 -132.333 198.999 -201c17.333 25.333 31 59 41 101c4 15.333 14 23 30 23c8.66699 0 16 -3 22 -9s9 -13.333 9 -22c0 -6.66699 -1 -13.334 -3 -20.001
c-11.333 -42 -27.333 -79 -48 -111c20 -12.667 52.667 -29 98 -49c13.333 -6 20 -15.667 20 -29c0 -8.66699 -3 -16 -9 -22s-13.333 -9 -22 -9c-12 0 -32 7 -60 21s-50.667 27.333 -68 40z" />
    <glyph glyph-name="quotesingle" unicode="'" horiz-adv-x="168" 
d="M84 681c10 0 17.3311 -2.5 21.998 -7.5s6.66699 -11.5 6 -19.5l-9 -172c-1.33301 -11.333 -7.66602 -17 -18.999 -17s-17.666 5.66699 -18.999 17l-9 172c-0.666992 8 1.33301 14.5 6 19.5s12 7.5 22 7.5z" />
    <glyph glyph-name="parenleft" unicode="(" horiz-adv-x="294" 
d="M60 296c0 138 12.333 238.669 37 302.002s69 109 133 137c5.33301 2 9.66602 3 12.999 3c7.33301 0 13.833 -2.83301 19.5 -8.5s8.5 -12.167 8.5 -19.5c0 -12 -6 -20.667 -18 -26c-20.667 -10 -38.167 -21.333 -52.5 -34s-26.333 -28.334 -36 -47.001
s-17.167 -37 -22.5 -55s-9.33301 -41.833 -12 -71.5s-4.33398 -56.667 -5.00098 -81s-1 -57.5 -1 -99.5s0.333008 -75.167 1 -99.5s2.33398 -51.333 5.00098 -81s6.66699 -53.5 12 -71.5s12.833 -36.333 22.5 -55s21.667 -34.334 36 -47.001s31.833 -24 52.5 -34
c12 -5.33301 18 -14 18 -26c0 -7.33301 -2.83301 -13.833 -8.5 -19.5s-12.167 -8.5 -19.5 -8.5c-3.33301 0 -7.66602 1 -12.999 3c-64 28 -108.333 73.667 -133 137s-37 164 -37 302z" />
    <glyph glyph-name="parenright" unicode=")" horiz-adv-x="294" 
d="M234 296c0 -138 -12.333 -238.669 -37 -302.002s-69 -109 -133 -137c-5.33301 -2 -9.66602 -3 -12.999 -3c-7.33301 0 -13.833 2.83301 -19.5 8.5s-8.5 12.167 -8.5 19.5c0 12 6 20.667 18 26c20.667 10 38.167 21.333 52.5 34s26.333 28.334 36 47.001
s17.167 37 22.5 55s9.33301 41.833 12 71.5s4.33398 56.667 5.00098 81s1 57.5 1 99.5s-0.333008 75.167 -1 99.5s-2.33398 51.333 -5.00098 81s-6.66699 53.5 -12 71.5s-12.833 36.333 -22.5 55s-21.667 34.334 -36 47.001s-31.833 24 -52.5 34c-12 5.33301 -18 14 -18 26
c0 7.33301 2.83301 13.833 8.5 19.5s12.167 8.5 19.5 8.5c3.33301 0 7.66602 -1 12.999 -3c64 -28 108.333 -73.667 133 -137s37 -164 37 -302z" />
    <glyph glyph-name="asterisk" unicode="*" horiz-adv-x="357" 
d="M240 441l-62 93l-62 -93c-8 -12.667 -17.667 -14.667 -29 -6c-12 8.66699 -14 18.334 -6 29.001l64 88l-101 23c-13.333 3.33301 -18.333 12.333 -15 27s12 19.667 26 15l105 -31l-4 106c0 13.333 7.33301 20 22 20s22 -6.66699 22 -20l-4 -106l105 31
c14 4.66699 22.667 -0.333008 26 -15s-1.66699 -23.667 -15 -27l-101 -23l64 -88c8 -10.667 6 -20.334 -6 -29.001c-11.333 -8.66699 -21 -6.66699 -29 6z" />
    <glyph glyph-name="plus" unicode="+" horiz-adv-x="454" 
d="M454 218c0 -7.33301 -2.66699 -13.666 -8 -18.999s-11.666 -8 -18.999 -8h-171v-170c0 -8 -2.83301 -14.833 -8.5 -20.5s-12.5 -8.5 -20.5 -8.5s-14.833 2.83301 -20.5 8.5s-8.5 12.5 -8.5 20.5v170h-171c-7.33301 0 -13.666 2.66699 -18.999 8s-8 11.666 -8 18.999
s2.66699 13.666 8 18.999s11.666 8 18.999 8h171v171c0 8 2.83301 14.833 8.5 20.5s12.5 8.5 20.5 8.5s14.833 -2.83301 20.5 -8.5s8.5 -12.5 8.5 -20.5v-171h171c7.33301 0 13.666 -2.66699 18.999 -8s8 -11.666 8 -18.999z" />
    <glyph glyph-name="comma" unicode="," horiz-adv-x="162" 
d="M129 23c0 -69.333 -24 -129 -72 -179c-4 -4 -8.33301 -6 -13 -6c-10 0 -15 5 -15 15c0 3.33301 1 6.33301 3 9c24.667 34 37 64.333 37 91c0 12.667 -6 26.667 -18 42s-18 30 -18 44c0 32 15.667 48 47 48c32.667 0 49 -21.333 49 -64z" />
    <glyph glyph-name="hyphen" unicode="-" horiz-adv-x="364" 
d="M309 252c0 -7.33301 -2.66699 -13.666 -8 -18.999s-11.666 -8 -18.999 -8h-200c-7.33301 0 -13.666 2.66699 -18.999 8s-8 11.666 -8 18.999s2.66699 13.666 8 18.999s11.666 8 18.999 8h200c7.33301 0 13.666 -2.66699 18.999 -8s8 -11.666 8 -18.999z" />
    <glyph glyph-name="period" unicode="." horiz-adv-x="160" 
d="M80 -8c-31.333 0 -47 15.667 -47 47c0 32 15.667 48 47 48s47 -16 47 -48c0 -31.333 -15.667 -47 -47 -47z" />
    <glyph glyph-name="slash" unicode="/" horiz-adv-x="407" 
d="M41 -51l264 779c4.66699 15.333 15 23 31 23c9.33301 0 17 -3.16699 23 -9.5s9 -13.833 9 -22.5c0 -4 -1 -9 -3 -15l-264 -779c-4.66699 -15.333 -15 -23 -31 -23c-9.33301 0 -17 3 -23 9s-9 13.667 -9 23c0 4 1 9 3 15z" />
    <glyph glyph-name="zero" unicode="0" horiz-adv-x="602" 
d="M301 46c62.667 0 108.5 22.833 137.5 68.5s43.5 119.834 43.5 222.501s-14.5 176.667 -43.5 222s-74.833 68 -137.5 68s-108.5 -22.667 -137.5 -68s-43.5 -119.333 -43.5 -222s14.5 -176.834 43.5 -222.501s74.833 -68.5 137.5 -68.5zM301 687
c84 0 146.167 -28.333 186.5 -85s60.5 -145 60.5 -265s-20.167 -208.5 -60.5 -265.5s-102.5 -85.5 -186.5 -85.5s-146.167 28.5 -186.5 85.5s-60.5 145.5 -60.5 265.5s20.167 208.333 60.5 265s102.5 85 186.5 85z" />
    <glyph glyph-name="one" unicode="1" horiz-adv-x="351" 
d="M195 589l-107.002 -77.001c-6 -4 -12.333 -6 -19 -6c-8.66699 0 -16.167 3.16699 -22.5 9.5s-9.5 13.833 -9.5 22.5c0 12 4.66699 21 14 27l157 109c6.66699 4.66699 13.334 7 20.001 7c9.33301 0 17.166 -3.16699 23.499 -9.5s9.5 -14.166 9.5 -23.499v-623
c0 -8.66699 -3.16699 -16.334 -9.5 -23.001s-14.166 -10 -23.499 -10s-17.166 3.33301 -23.499 10s-9.5 14.334 -9.5 23.001v564z" />
    <glyph glyph-name="two" unicode="2" horiz-adv-x="532" 
d="M67 557c14 41.333 38.1631 73.332 72.4961 95.999s76.833 34 127.5 34c66.667 0 119 -17.667 157 -53s57 -82.666 57 -141.999c0 -37.333 -9.16699 -72.833 -27.5 -106.5s-41.166 -62 -68.499 -85s-57.166 -45.833 -89.499 -68.5s-62.166 -42.334 -89.499 -59.001
s-50.166 -34.667 -68.499 -54s-27.5 -38.333 -27.5 -57h349c8.66699 0 16 -3 22 -9s9 -13.333 9 -22s-3 -16 -9 -22s-13.333 -9 -22 -9h-386c-8.66699 0 -16 3 -22 9s-9 13.333 -9 22c0 40.667 12.833 77.5 38.5 110.5s56.667 61.5 93 85.5l109 71.5
c36.333 23.667 67.333 51.834 93 84.501s38.5 69 38.5 109s-13 72.5 -39 97.5s-62 37.5 -108 37.5c-66.667 0 -114 -30.667 -142 -92c-6 -13.333 -15.667 -20 -29 -20c-8.66699 0 -16 3 -22 9s-9 13.333 -9 22c0 3.33301 0.666992 7 2 11z" />
    <glyph glyph-name="three" unicode="3" horiz-adv-x="542" 
d="M264 408l9.99707 -0.00390625c75.333 0 129.5 -20.167 162.5 -60.5s49.5 -92.166 49.5 -155.499c0 -66 -19.667 -116.833 -59 -152.5s-96.666 -53.5 -171.999 -53.5c-98 0 -169.667 37.667 -215 113c-3.33301 5.33301 -5 11 -5 17c0 8.66699 2.83301 15.834 8.5 21.501
s12.834 8.5 21.501 8.5c11.333 0 20.333 -5.33301 27 -16c34 -56 88.333 -84 163 -84c54.667 0 95.834 12.5 123.501 37.5s41.5 61.167 41.5 108.5c0 104 -50.333 156 -151 156h-70c-8.66699 0 -15.834 2.83301 -21.501 8.5s-8.5 12.834 -8.5 21.501
c0 7.33301 2.66699 14.333 8 21l184 214h-258c-8.66699 0 -15.834 2.83301 -21.501 8.5s-8.5 12.834 -8.5 21.501s2.83301 15.834 8.5 21.501s12.834 8.5 21.501 8.5h326c8.66699 0 15.834 -2.83301 21.501 -8.5s8.5 -12.834 8.5 -21.501c0 -8 -2.66699 -15 -8 -21z" />
    <glyph glyph-name="four" unicode="4" horiz-adv-x="540" 
d="M415 217l56.999 0.000976562c9.33301 0 17 -2.83301 23 -8.5s9 -12.834 9 -21.501s-3 -16.167 -9 -22.5s-13.667 -9.5 -23 -9.5h-57v-130c0 -8.66699 -3.16699 -16.334 -9.5 -23.001s-14.166 -10 -23.499 -10s-17.166 3.33301 -23.499 10s-9.5 14.334 -9.5 23.001v130
h-292c-8.66699 0 -16 3 -22 9s-9 13.333 -9 22c0 6.66699 2.33301 13.334 7 20.001l322 460c7.33301 9.33301 16.333 14 27 14c9.33301 0 17.166 -3.33301 23.499 -10s9.5 -14.334 9.5 -23.001v-430zM114.999 217.001h234v336z" />
    <glyph glyph-name="five" unicode="5" horiz-adv-x="555" 
d="M272 446c71.333 0 127.837 -19.167 169.504 -57.5s62.5 -95.5 62.5 -171.5c0 -77.333 -20.833 -135.166 -62.5 -173.499s-98.167 -57.5 -169.5 -57.5c-54 0 -100.833 11.667 -140.5 35s-69.834 56.666 -90.501 99.999c-2.66699 5.33301 -4 10.333 -4 15
c0 8.66699 3 16 9 22s13.333 9 22 9c12 0 21.333 -5.66699 28 -17c21.333 -36 45.666 -62 72.999 -78s61.666 -24 102.999 -24c51.333 0 91.833 13.833 121.5 41.5s44.5 70.167 44.5 127.5c0 56 -15 98 -45 126s-70.333 42 -121 42c-36 0 -66 -4.66699 -90 -14
s-47.333 -25 -70 -47c-8.66699 -8.66699 -17.667 -13 -27 -13c-8.66699 0 -16 3 -22 9s-9 13.333 -9 22c0 2 0.666992 6.33301 2 13l58 294c1.33301 6 4.66602 11.5 9.99902 16.5s12 7.5 20 7.5h304c8.66699 0 16 -3 22 -9s9 -13.333 9 -22s-3 -16 -9 -22s-13.333 -9 -22 -9
h-282l-40 -205c38 26.667 86.667 40 146 40z" />
    <glyph glyph-name="six" unicode="6" horiz-adv-x="566" 
d="M291 433c68.667 0 123.667 -18.668 165 -56.001s62 -92.666 62 -165.999c0 -77.333 -20.667 -134.166 -62 -170.499s-98.333 -54.5 -171 -54.5c-80 0 -139.5 30 -178.5 90s-58.5 141.667 -58.5 245c0 244 83.667 366 251 366c36.667 0 69.334 -5.5 98.001 -16.5
s49.667 -23.833 63 -38.5c6.66699 -6.66699 10 -14.334 10 -23.001s-3 -16 -9 -22s-13.333 -9 -22 -9c-6.66699 0 -13.667 2.66699 -21 8c-36.667 27.333 -76.334 41 -119.001 41c-123.333 0 -185 -94 -185 -282c16 23.333 39.5 43.833 70.5 61.5s66.5 26.5 106.5 26.5z
M285 45.999c111.333 0 167 54.999 167 164.999c0 54.667 -14.833 95.334 -44.5 122.001s-68.5 40 -116.5 40c-74 0 -131.333 -36.333 -172 -109c0 -65.333 14.5 -118 43.5 -158s69.833 -60 122.5 -60z" />
    <glyph glyph-name="seven" unicode="7" horiz-adv-x="483" 
d="M111 24c0 61.333 9.66699 118.668 29 172.001s42.833 98.333 70.5 135s55.334 70.5 83.001 101.5s51.167 61.667 70.5 92s29 59.166 29 86.499h-337c-8.66699 0 -16 3 -22 9s-9 13.333 -9 22s3 16 9 22s13.333 9 22 9h373c8.66699 0 16 -3 22 -9s9 -13.333 9 -22
c0 -41.333 -9.83301 -80.833 -29.5 -118.5s-43.334 -72.5 -71.001 -104.5l-83.5 -100c-28 -34.667 -51.833 -77.5 -71.5 -128.5s-29.5 -106.5 -29.5 -166.5c0 -9.33301 -3.16699 -17 -9.5 -23s-13.833 -9 -22.5 -9s-16.167 3 -22.5 9s-9.5 13.667 -9.5 23z" />
    <glyph glyph-name="eight" unicode="8" horiz-adv-x="554" 
d="M277 -14c-71.333 0 -128.166 17.5 -170.499 52.5s-63.5 85.5 -63.5 151.5c0 42.667 10.333 79.5 31 110.5s49.667 53.5 87 67.5c-58.667 31.333 -88 79.666 -88 144.999c0 58 18.167 101.5 54.5 130.5s86.166 43.5 149.499 43.5s113.166 -14.5 149.499 -43.5
s54.5 -72.5 54.5 -130.5c0 -65.333 -29.333 -113.666 -88 -144.999c37.333 -14 66.333 -36.5 87 -67.5s31 -67.833 31 -110.5c0 -66 -21.167 -116.5 -63.5 -151.5s-99.166 -52.5 -170.499 -52.5zM277 627c-44 0 -77.998 -9.5 -101.998 -28.5s-36 -47.5 -36 -85.5
c0 -38.667 12.167 -68 36.5 -88s58.166 -30 101.499 -30s77.166 10 101.499 30s36.5 49.333 36.5 88c0 38 -12 66.5 -36 85.5s-58 28.5 -102 28.5zM277.002 335c-54 0 -95.5 -12 -124.5 -36s-43.5 -60.333 -43.5 -109c0 -48 15 -84 45 -108s71 -36 123 -36s93 12 123 36
s45 60 45 108c0 48.667 -14.5 85 -43.5 109s-70.5 36 -124.5 36z" />
    <glyph glyph-name="nine" unicode="9" horiz-adv-x="566" 
d="M275 240c-68.667 0 -123.667 18.668 -165 56.001s-62 92.666 -62 165.999c0 77.333 20.667 134.166 62 170.499s98.333 54.5 171 54.5c80 0 139.5 -30 178.5 -90s58.5 -141.667 58.5 -245c0 -244 -83.667 -366 -251 -366c-36.667 0 -69.334 5.5 -98.001 16.5
s-49.667 23.833 -63 38.5c-6.66699 6.66699 -10 14.334 -10 23.001s3 16 9 22s13.333 9 22 9c6.66699 0 13.667 -2.66699 21 -8c36.667 -27.333 76.334 -41 119.001 -41c123.333 0 185 94 185 282c-16 -23.333 -39.5 -43.833 -70.5 -61.5s-66.5 -26.5 -106.5 -26.5z
M281 627.001c-111.333 0 -167 -54.999 -167 -164.999c0 -54.667 14.833 -95.334 44.5 -122.001s68.5 -40 116.5 -40c74 0 131.333 36.333 172 109c0 65.333 -14.5 118 -43.5 158s-69.833 60 -122.5 60z" />
    <glyph glyph-name="colon" unicode=":" horiz-adv-x="160" 
d="M80 -8c-31.333 0 -47 15.667 -47 47c0 32 15.667 48 47 48s47 -16 47 -48c0 -31.333 -15.667 -47 -47 -47zM80 361c-31.333 0 -47 15.667 -47 47c0 32 15.667 48 47 48s47 -16 47 -48c0 -31.333 -15.667 -47 -47 -47z" />
    <glyph glyph-name="semicolon" unicode=";" horiz-adv-x="160" 
d="M129 23c0 -69.333 -24 -129 -72 -179c-4 -4 -8.33301 -6 -13 -6c-10 0 -15 5 -15 15c0 3.33301 1 6.33301 3 9c24.667 34 37 64.333 37 91c0 12.667 -6 26.667 -18 42s-18 30 -18 44c0 32 15.667 48 47 48c32.667 0 49 -21.333 49 -64zM80 361
c-31.333 0 -47 15.667 -47 47c0 32 15.667 48 47 48s47 -16 47 -48c0 -31.333 -15.667 -47 -47 -47z" />
    <glyph glyph-name="less" unicode="&#x3c;" horiz-adv-x="337" 
d="M0 235c0 9.33301 4.33301 16.9961 13 22.9961l281 222c4.66699 3.33301 10 5 16 5c7.33301 0 13.666 -2.66699 18.999 -8s8 -11.666 8 -18.999c0 -9.33301 -3.66699 -16.666 -11 -21.999l-260 -201l260 -201c7.33301 -5.33301 11 -12.666 11 -21.999
c0 -7.33301 -2.66699 -13.666 -8 -18.999s-11.666 -8 -18.999 -8c-6 0 -11.333 1.66699 -16 5l-281 222c-8.66699 6 -13 13.667 -13 23z" />
    <glyph glyph-name="equal" unicode="=" horiz-adv-x="454" 
d="M454 294c0 -7.33301 -2.66699 -13.666 -8 -18.999s-11.666 -8 -18.999 -8h-400c-7.33301 0 -13.666 2.66699 -18.999 8s-8 11.666 -8 18.999s2.66699 13.666 8 18.999s11.666 8 18.999 8h400c7.33301 0 13.666 -2.66699 18.999 -8s8 -11.666 8 -18.999zM454 141
c0 -7.33301 -2.66699 -13.666 -8 -18.999s-11.666 -8 -18.999 -8h-400c-7.33301 0 -13.666 2.66699 -18.999 8s-8 11.666 -8 18.999s2.66699 13.666 8 18.999s11.666 8 18.999 8h400c7.33301 0 13.666 -2.66699 18.999 -8s8 -11.666 8 -18.999z" />
    <glyph glyph-name="greater" unicode="&#x3e;" horiz-adv-x="337" 
d="M337 235c0 -9.33301 -4.33301 -16.9961 -13 -22.9961l-281 -222c-4.66699 -3.33301 -10 -5 -16 -5c-7.33301 0 -13.666 2.66699 -18.999 8s-8 11.666 -8 18.999c0 9.33301 3.66699 16.666 11 21.999l260 201l-260 201c-7.33301 5.33301 -11 12.666 -11 21.999
c0 7.33301 2.66699 13.666 8 18.999s11.666 8 18.999 8c6 0 11.333 -1.66699 16 -5l281 -222c8.66699 -6 13 -13.667 13 -23z" />
    <glyph glyph-name="question" unicode="?" horiz-adv-x="461" 
d="M185 158c-21.333 21.333 -31.998 49.6699 -31.998 85.0029c0 24 7.16699 45.333 21.5 64s31.833 34.5 52.5 47.5l61.5 39.5c20.333 13.333 37.666 30.5 51.999 51.5s21.5 45.167 21.5 72.5c0 36 -11.667 63.333 -35 82s-56.333 28 -99 28c-40 0 -71.333 -10 -94 -30
s-34 -50 -34 -90c0 -9.33301 -3.33301 -17.166 -10 -23.499s-14.334 -9.5 -23.001 -9.5s-16.334 3.16699 -23.001 9.5s-10 14.166 -10 23.499c0 56 17 99.833 51 131.5s81.667 47.5 143 47.5c62 0 110.5 -14.667 145.5 -44s52.5 -71 52.5 -125
c0 -32.667 -7 -61.834 -21 -87.501s-31.167 -46.334 -51.5 -62.001s-40.666 -30 -60.999 -43s-37.5 -26.333 -51.5 -40s-21 -27.834 -21 -42.501c0 -12.667 4.66699 -26 14 -40c5.33301 -8 8 -15.333 8 -22c0 -10 -3.5 -18 -10.5 -24s-14.5 -9 -22.5 -9
c-9.33301 0 -17.333 3.33301 -24 10zM205.002 -7.99609c-31.333 0 -47 15.667 -47 47c0 32 15.667 48 47 48s47 -16 47 -48c0 -31.333 -15.667 -47 -47 -47z" />
    <glyph glyph-name="at" unicode="@" horiz-adv-x="801" 
d="M494 54c-26 -40.667 -65.666 -60.999 -118.999 -60.999c-38.667 0 -70.667 9.66699 -96 29s-38 46 -38 80c0 33.333 11.5 59.666 34.5 78.999s54.833 29 95.5 29h116v25c0 24.667 -8.5 43.667 -25.5 57s-39.5 20 -67.5 20c-34.667 0 -64 -13.667 -88 -41
c-6 -6 -12.667 -9 -20 -9c-6.66699 0 -12.334 2.33301 -17.001 7s-7 10.334 -7 17.001c0 5.33301 1.66699 10.333 5 15c28.667 38.667 71 58 127 58c46 0 81 -11.667 105 -35s36 -54.666 36 -93.999v-122c0 -26.667 5.33301 -45.5 16 -56.5s27 -16.5 49 -16.5
c37.333 0 65.166 12 83.499 36s27.5 65.333 27.5 124c0 100 -27.5 174.333 -82.5 223s-131.5 73 -229.5 73c-100 0 -176.5 -25.167 -229.5 -75.5s-79.5 -131.5 -79.5 -243.5c0 -112.667 26.5 -193.834 79.5 -243.501s129.5 -74.5 229.5 -74.5
c99.333 0 176.333 18.333 231 55c4 2.66699 8.33301 4 13 4c6 0 11.333 -2.16699 16 -6.5s7 -9.83301 7 -16.5c0 -8 -3.33301 -14.333 -10 -19c-66 -40.667 -151.667 -61 -257 -61c-115.333 0 -204 30 -266 90s-93 150.667 -93 272s31 212.166 93 272.499
s150.667 90.5 266 90.5c108.667 0 196.167 -29 262.5 -87s99.5 -142.333 99.5 -253c0 -19.333 -1.16699 -37.5 -3.5 -54.5s-7 -34.833 -14 -53.5s-16.167 -34.667 -27.5 -48s-27 -24.333 -47 -33s-43 -13 -69 -13c-53.333 0 -88.666 20.333 -105.999 61zM379.001 37.001
c28.667 0 53.833 8.5 75.5 25.5s32.5 40.833 32.5 71.5v33h-116c-53.333 0 -80 -21.667 -80 -65c0 -20.667 7.5 -36.667 22.5 -48s36.833 -17 65.5 -17z" />
    <glyph glyph-name="A" unicode="A" horiz-adv-x="613" 
d="M425 261l-119 306l-118 -306h237zM446 199h-279.001l-73 -183c-6 -16 -17 -24 -33 -24c-9.33301 0 -17.333 3.33301 -24 10s-10 14.667 -10 24c0 6 1 11 3 15l244 617c6.66699 15.333 17.334 23 32.001 23c15.333 0 26.333 -7.66699 33 -23l244 -617
c2 -5.33301 3 -10.333 3 -15c0 -9.33301 -3.33301 -17.333 -10 -24s-15 -10 -25 -10c-16 0 -27 7.66699 -33 23z" />
    <glyph glyph-name="B" unicode="B" horiz-adv-x="561" 
d="M148 611v-232h135c44 0 77.667 10.333 101 31s35 49 35 85c0 77.333 -45.333 116 -136 116h-135zM148 321v-259.001h165c44.667 0 78.667 11.333 102 34s35 54.667 35 96c0 40.667 -12.167 72.334 -36.5 95.001s-57.833 34 -100.5 34h-165zM314 -0.000976562
l-200.001 0.000976562c-9.33301 -0 -17.333 3.33301 -24 10s-10 14.667 -10 24v605c0 9.33301 3.33301 17.333 10 24s14.667 10 24 10h170c68.667 0 119.834 -15.667 153.501 -47s50.5 -75 50.5 -131c0 -32.667 -9 -61.5 -27 -86.5s-41.333 -41.5 -70 -49.5
c38.667 -9.33301 69.667 -28 93 -56s35 -65 35 -111c0 -58.667 -17.833 -105.334 -53.5 -140.001s-86.167 -52 -151.5 -52z" />
    <glyph glyph-name="C" unicode="C" horiz-adv-x="631" 
d="M356 -14c-208 0 -311.997 116.667 -311.997 350c0 116 27.167 203.5 81.5 262.5s131.166 88.5 230.499 88.5c47.333 0 90.666 -9.5 129.999 -28.5s71 -44.833 95 -77.5c4.66699 -6.66699 7 -13.667 7 -21c0 -9.33301 -3 -17 -9 -23s-13.667 -9 -23 -9
c-10.667 0 -19.334 4.33301 -26.001 13c-18 24.667 -42.5 44.834 -73.5 60.501s-64.5 23.5 -100.5 23.5c-78 0 -137.833 -24 -179.5 -72s-62.5 -120.333 -62.5 -217c0 -100.667 20.333 -173.834 61 -219.501s101 -68.5 181 -68.5c34.667 0 67.667 7 99 21
s56.333 34.333 75 61c6 8.66699 14.667 13 26 13c9.33301 0 17 -3.16699 23 -9.5s9 -13.833 9 -22.5c0 -6.66699 -2 -13 -6 -19c-22 -32 -53.667 -57.667 -95 -77s-85 -29 -131 -29z" />
    <glyph glyph-name="D" unicode="D" horiz-adv-x="608" 
d="M148 611v-549h107c78.667 0 138.334 20.833 179.001 62.5s61 112.167 61 211.5c0 98.667 -20.333 169.167 -61 211.5s-100.334 63.5 -179.001 63.5h-107zM114 673l141 0.000976562c100 0 176.5 -26.5 229.5 -79.5s79.5 -138.833 79.5 -257.5
s-26.5 -204.334 -79.5 -257.001s-129.5 -79 -229.5 -79h-141c-9.33301 -0 -17.333 3.33301 -24 10s-10 14.667 -10 24v605c0 9.33301 3.33301 17.333 10 24s14.667 10 24 10z" />
    <glyph glyph-name="E" unicode="E" 
d="M446 0h-332c-9.33301 -0 -17.333 3.33301 -24 10s-10 14.667 -10 24v605c0 9.33301 3.33301 17.333 10 24s14.667 10 24 10h321c8.66699 0 16 -3 22 -9s9 -13.333 9 -22s-3 -16 -9 -22s-13.333 -9 -22 -9h-287v-241h220c8.66699 0 16 -3 22 -9s9 -13.333 9 -22
s-3 -16 -9 -22s-13.333 -9 -22 -9h-220v-246h298c8.66699 0 16 -3 22 -9s9 -13.333 9 -22s-3 -16 -9 -22s-13.333 -9 -22 -9z" />
    <glyph glyph-name="F" unicode="F" 
d="M148 300v-274c0 -9.33301 -3.33301 -17.333 -10 -24s-14.667 -10 -24 -10s-17.333 3.33301 -24 10s-10 14.667 -10 24v613c0 9.33301 3.33301 17.333 10 24s14.667 10 24 10h321c8.66699 0 16 -3 22 -9s9 -13.333 9 -22s-3 -16 -9 -22s-13.333 -9 -22 -9h-287v-249h220
c8.66699 0 16 -3 22 -9s9 -13.333 9 -22s-3 -16 -9 -22s-13.333 -9 -22 -9h-220z" />
    <glyph glyph-name="G" unicode="G" horiz-adv-x="663" 
d="M356 48c81.333 0 143.338 26.667 186.005 80v145h-167c-8.66699 0 -16 3 -22 9s-9 13.333 -9 22s3 16 9 22s13.333 9 22 9h202c8 0 15.167 -3 21.5 -9s9.5 -13.333 9.5 -22v-175c0 -11.333 -4.33301 -22.333 -13 -33c-62.667 -73.333 -142.334 -110 -239.001 -110
c-208 0 -312 116.667 -312 350c0 116 27.167 203.5 81.5 262.5s131.166 88.5 230.499 88.5c47.333 0 90.666 -9.5 129.999 -28.5s71 -44.833 95 -77.5c4.66699 -6.66699 7 -13.667 7 -21c0 -9.33301 -3 -17 -9 -23s-13.667 -9 -23 -9c-10.667 0 -19.334 4.33301 -26.001 13
c-18 24.667 -42.333 44.834 -73 60.501s-64.334 23.5 -101.001 23.5c-78 0 -137.833 -24 -179.5 -72s-62.5 -120.333 -62.5 -217c0 -100.667 20.333 -173.834 61 -219.501s101 -68.5 181 -68.5z" />
    <glyph glyph-name="H" unicode="H" horiz-adv-x="644" 
d="M496 314h-348v-288c0 -9.33301 -3.33301 -17.333 -10 -24s-14.667 -10 -24 -10s-17.333 3.33301 -24 10s-10 14.667 -10 24v621c0 9.33301 3.33301 17.333 10 24s14.667 10 24 10s17.333 -3.33301 24 -10s10 -14.667 10 -24v-271h348v271c0 9.33301 3.33301 17.333 10 24
s14.667 10 24 10s17.333 -3.33301 24 -10s10 -14.667 10 -24v-621c0 -9.33301 -3.33301 -17.333 -10 -24s-14.667 -10 -24 -10s-17.333 3.33301 -24 10s-10 14.667 -10 24v288z" />
    <glyph glyph-name="I" unicode="I" horiz-adv-x="228" 
d="M148 647v-621c0 -9.33301 -3.33301 -17.333 -10 -24s-14.667 -10 -24 -10s-17.333 3.33301 -24 10s-10 14.667 -10 24v621c0 9.33301 3.33301 17.333 10 24s14.667 10 24 10s17.333 -3.33301 24 -10s10 -14.667 10 -24z" />
    <glyph glyph-name="J" unicode="J" horiz-adv-x="413" 
d="M35 10c-12.667 7.33301 -19.002 17.334 -19.002 30.001c0 9.33301 3.33301 17.166 10 23.499s14.334 9.5 23.001 9.5c4.66699 0 11.334 -2 20.001 -6c21.333 -10.667 46 -16 74 -16c42 0 72.833 13.667 92.5 41s29.5 64.333 29.5 111v444c0 9.33301 3.33301 17.333 10 24
s14.667 10 24 10s17.333 -3.33301 24 -10s10 -14.667 10 -24v-444c0 -66 -15.167 -118.5 -45.5 -157.5s-78.5 -58.5 -144.5 -58.5c-45.333 0 -81.333 7.66699 -108 23z" />
    <glyph glyph-name="K" unicode="K" horiz-adv-x="554" 
d="M148 335l291 333c6.66699 8.66699 15.667 13 27 13c9.33301 0 17.5 -3.5 24.5 -10.5s10.5 -15.167 10.5 -24.5c0 -8 -3.33301 -16 -10 -24l-209 -234l242 -341c4.66699 -6.66699 7 -13.667 7 -21c0 -9.33301 -3.33301 -17.333 -10 -24s-14.667 -10 -24 -10
c-12 0 -21.667 5.33301 -29 16l-232 330l-88 -99v-213c0 -9.33301 -3.33301 -17.333 -10 -24s-14.667 -10 -24 -10s-17.333 3.33301 -24 10s-10 14.667 -10 24v621c0 9.33301 3.33301 17.333 10 24s14.667 10 24 10s17.333 -3.33301 24 -10s10 -14.667 10 -24v-312z" />
    <glyph glyph-name="L" unicode="L" horiz-adv-x="483" 
d="M148 64h274c9.33301 0 17 -3 23 -9s9 -13.667 9 -23s-3 -17 -9 -23s-13.667 -9 -23 -9h-308c-9.33301 -0 -17.333 3.33301 -24 10s-10 14.667 -10 24v613c0 9.33301 3.33301 17.333 10 24s14.667 10 24 10s17.333 -3.33301 24 -10s10 -14.667 10 -24v-583z" />
    <glyph glyph-name="M" unicode="M" horiz-adv-x="761" 
d="M375 109c-14 0 -24 6.33301 -30 19l-209 389v-492c0 -8.66699 -3.33301 -16.334 -10 -23.001s-14.334 -10 -23.001 -10s-16.334 3.33301 -23.001 10s-10 14.334 -10 23.001v623c0 9.33301 3.33301 17.166 10 23.499s14.334 9.5 23.001 9.5c14 0 24 -6.33301 30 -19
l242 -453l243 453c7.33301 12.667 17.333 19 30 19c9.33301 0 17.166 -3.16699 23.499 -9.5s9.5 -14.166 9.5 -23.499v-623c0 -8.66699 -3.16699 -16.334 -9.5 -23.001s-14.166 -10 -23.499 -10s-17.166 3.33301 -23.499 10s-9.5 14.334 -9.5 23.001v492l-210 -389
c-6.66699 -12.667 -16.667 -19 -30 -19z" />
    <glyph glyph-name="N" unicode="N" horiz-adv-x="620" 
d="M517 681c8.66699 0 16.332 -3.16602 22.999 -9.49902s10 -14.166 10 -23.499v-622c0 -9.33301 -3.33301 -17.333 -10 -24s-14.667 -10 -24 -10c-11.333 0 -20.666 4.66699 -27.999 14l-352 531v-512c0 -8.66699 -3.33301 -16.334 -10 -23.001s-14.334 -10 -23.001 -10
s-16.334 3.33301 -23.001 10s-10 14.334 -10 23.001v623c0 9.33301 3.33301 17.166 10 23.499s14.334 9.5 23.001 9.5c11.333 0 20.333 -4.66699 27 -14l354 -532v513c0 9.33301 3.33301 17.166 10 23.499s14.334 9.5 23.001 9.5z" />
    <glyph glyph-name="O" unicode="O" horiz-adv-x="712" 
d="M356 -14c-98.667 0 -175.33 29.5 -229.997 88.5s-82 146.167 -82 261.5c0 116 27.167 203.5 81.5 262.5s131.166 88.5 230.499 88.5s176.166 -29.5 230.499 -88.5s81.5 -146.5 81.5 -262.5c0 -115.333 -27.333 -202.5 -82 -261.5s-131.334 -88.5 -230.001 -88.5z
M356.004 625c-78 0 -137.833 -24 -179.5 -72s-62.5 -120.333 -62.5 -217c0 -96 20.833 -168 62.5 -216s101.5 -72 179.5 -72s137.833 24 179.5 72s62.5 120 62.5 216c0 96.667 -20.833 169 -62.5 217s-101.5 72 -179.5 72z" />
    <glyph glyph-name="P" unicode="P" horiz-adv-x="544" 
d="M148 611l0.00195312 -267h155c41.333 0 73.666 11.667 96.999 35s35 56.333 35 99c0 43.333 -11.833 76.333 -35.5 99s-55.834 34 -96.501 34h-155zM148.002 282v-256c0 -9.33301 -3.33301 -17.333 -10 -24s-14.667 -10 -24 -10s-17.333 3.33301 -24 10
s-10 14.667 -10 24v613c0 9.33301 3.33301 17.333 10 24s14.667 10 24 10h199c56.667 0 102.667 -16.5 138 -49.5s53 -81.5 53 -145.5c0 -63.333 -17.667 -111.833 -53 -145.5s-81.333 -50.5 -138 -50.5h-165z" />
    <glyph glyph-name="Q" unicode="Q" horiz-adv-x="712" 
d="M356 -14c-98.667 0 -175.33 29.499 -229.997 88.499s-82 146.167 -82 261.5c0 116 27.167 203.5 81.5 262.5s131.166 88.5 230.499 88.5s176.166 -29.5 230.499 -88.5s81.5 -146.5 81.5 -262.5c0 -166 -55.333 -273.667 -166 -323
c30.667 -13.333 54.667 -30.666 72 -51.999c6.66699 -8.66699 10 -17 10 -25c0 -9.33301 -3.33301 -17.166 -10 -23.499s-14.667 -9.5 -24 -9.5s-17.666 3.66699 -24.999 11c-24.667 27.333 -47.834 46.166 -69.501 56.499s-54.834 15.5 -99.501 15.5zM356.004 624.999
c-78 0 -137.833 -24 -179.5 -72s-62.5 -120.333 -62.5 -217c0 -96 20.833 -168 62.5 -216s101.5 -72 179.5 -72s137.833 24 179.5 72s62.5 120 62.5 216c0 96.667 -20.833 169 -62.5 217s-101.5 72 -179.5 72z" />
    <glyph glyph-name="R" unicode="R" horiz-adv-x="546" 
d="M148 611l-0.000976562 -258h167c34.667 0 63.334 12.333 86.001 37s34 55.334 34 92.001c0 37.333 -11.5 68.166 -34.5 92.499s-52.5 36.5 -88.5 36.5h-164zM147.999 291v-265c0 -9.33301 -3.33301 -17.333 -10 -24s-14.667 -10 -24 -10s-17.333 3.33301 -24 10
s-10 14.667 -10 24v613c0 9.33301 3.33301 17.333 10 24s14.667 10 24 10h199c55.333 0 101 -18.333 137 -55s54 -82 54 -136c0 -52.667 -16.5 -97 -49.5 -133s-76.167 -55.333 -129.5 -58l183 -244c4.66699 -5.33301 7 -12.333 7 -21c0 -9.33301 -3.33301 -17.333 -10 -24
s-14.667 -10 -24 -10c-12 0 -21.667 5.33301 -29 16l-203 283h-101z" />
    <glyph glyph-name="S" unicode="S" horiz-adv-x="558" 
d="M443 546c-42.667 52.667 -96.665 79.002 -161.998 79.002c-49.333 0 -85.833 -10.333 -109.5 -31s-35.5 -46.667 -35.5 -78c0 -30 13 -54.833 39 -74.5s57.5 -35.334 94.5 -47.001s74 -24.667 111 -39s68.5 -36 94.5 -65s39 -65.833 39 -110.5
c0 -62.667 -20.667 -110.667 -62 -144s-100.666 -50 -177.999 -50c-54 0 -101.833 11.833 -143.5 35.5s-71.5 52.834 -89.5 87.501c-3.33301 6.66699 -5 12.667 -5 18c0 8.66699 3 16.167 9 22.5s13.667 9.5 23 9.5c12 0 21.333 -5.33301 28 -16
c38.667 -63.333 98 -95 178 -95c55.333 0 97.833 11.167 127.5 33.5s44.5 55.166 44.5 98.499c0 28.667 -9.33301 53 -28 73s-42 34.833 -70 44.5l-91 32c-32.667 11.667 -63 23.5 -91 35.5s-51.333 31 -70 57s-28 57.333 -28 94c0 49.333 18.167 90.166 54.5 122.499
s89.166 48.5 158.499 48.5c46.667 0 88.667 -9.16699 126 -27.5s66.666 -43.5 87.999 -75.5c4 -6 6 -12.333 6 -19c0 -8.66699 -3.16699 -16.167 -9.5 -22.5s-13.833 -9.5 -22.5 -9.5c-10.667 0 -19.334 4.33301 -26.001 13z" />
    <glyph glyph-name="T" unicode="T" horiz-adv-x="538" 
d="M235 609h-179c-9.33301 0 -17 3.16699 -23 9.5s-9 13.833 -9 22.5s3 16.167 9 22.5s13.667 9.5 23 9.5h425c8.66699 0 16.167 -3.16699 22.5 -9.5s9.5 -13.833 9.5 -22.5s-3.16699 -16.167 -9.5 -22.5s-13.833 -9.5 -22.5 -9.5h-178v-583
c0 -9.33301 -3.33301 -17.333 -10 -24s-14.667 -10 -24 -10s-17.333 3.33301 -24 10s-10 14.667 -10 24v583z" />
    <glyph glyph-name="U" unicode="U" horiz-adv-x="624" 
d="M315 -14c-156.667 0 -235.002 72.999 -235.002 218.999v442c0 9.33301 3.33301 17.333 10 24s14.667 10 24 10s17.333 -3.33301 24 -10s10 -14.667 10 -24v-442c0 -22 2.33301 -41.5 7 -58.5s12.834 -33.167 24.501 -48.5s28.834 -27.166 51.501 -35.499
s50.667 -12.5 84 -12.5c62.667 0 106 14.167 130 42.5s36 65.833 36 112.5v442c0 9.33301 3.33301 17.333 10 24s14.667 10 24 10s17.333 -3.33301 24 -10s10 -14.667 10 -24v-442c0 -146 -78 -219 -234 -219z" />
    <glyph glyph-name="V" unicode="V" horiz-adv-x="576" 
d="M288 121l203 538c5.33301 14.667 16 22 32 22c9.33301 0 17.333 -3.33301 24 -10s10 -14.667 10 -24c0 -4 -1 -9 -3 -15l-234 -617c-5.33301 -15.333 -16 -23 -32 -23s-26.667 7.66699 -32 23l-234 617c-2 6 -3 11 -3 15c0 9.33301 3.33301 17.333 10 24s14.667 10 24 10
c16 0 26.667 -7.33301 32 -22z" />
    <glyph glyph-name="W" unicode="W" horiz-adv-x="818" 
d="M553 18l-144 509l-144 -509c-4.66699 -17.333 -15.667 -26 -33 -26s-28.333 8.33301 -33 25l-177 618c-1.33301 5.33301 -2 9.33301 -2 12c0 9.33301 3.33301 17.333 10 24s14.667 10 24 10c17.333 0 28.333 -8.33301 33 -25l146 -517l143 517c4 16.667 15 25 33 25
s29 -8.33301 33 -25l143 -517l146 517c4.66699 16.667 15.667 25 33 25c9.33301 0 17.333 -3.33301 24 -10s10 -14.667 10 -24c0 -2.66699 -0.666992 -6.66699 -2 -12l-177 -618c-4.66699 -16.667 -15.667 -25 -33 -25s-28.333 8.66699 -33 26z" />
    <glyph glyph-name="X" unicode="X" horiz-adv-x="500" 
d="M432 5l-182 279l-182 -279c-5.33301 -8.66699 -14.333 -13 -27 -13c-9.33301 0 -17.333 3.33301 -24 10s-10 14.667 -10 24c0 6.66699 1.66699 12.667 5 18l200 301l-188 284c-3.33301 4.66699 -5 10.667 -5 18c0 9.33301 3.33301 17.333 10 24s14.667 10 24 10
c12 0 22 -5.66699 30 -17l167 -256l167 256c8 11.333 18 17 30 17c9.33301 0 17.333 -3.33301 24 -10s10 -14.667 10 -24c0 -7.33301 -1.66699 -13.333 -5 -18l-188 -284l200 -301c3.33301 -5.33301 5 -11.333 5 -18c0 -9.33301 -3.33301 -17.333 -10 -24
s-14.667 -10 -24 -10c-12.667 0 -21.667 4.33301 -27 13z" />
    <glyph glyph-name="Y" unicode="Y" 
d="M259 -8c-9.33301 0 -17.335 3.33301 -24.002 10s-10 14.667 -10 24v287l-201 316c-3.33301 5.33301 -5 11.333 -5 18c0 9.33301 3.33301 17.333 10 24s14.667 10 24 10c12.667 0 22.334 -5.33301 29.001 -16l177 -284l177 284c6.66699 10.667 16.334 16 29.001 16
c9.33301 0 17.333 -3.33301 24 -10s10 -14.667 10 -24c0 -6.66699 -1.66699 -12.667 -5 -18l-201 -316v-287c0 -9.33301 -3.33301 -17.333 -10 -24s-14.667 -10 -24 -10z" />
    <glyph glyph-name="Z" unicode="Z" horiz-adv-x="513" 
d="M469 0h-420c-8.66699 0 -16.167 3 -22.5 9s-9.5 13.667 -9.5 23c0 6.66699 2 13 6 19l372 558h-325c-9.33301 0 -17 3.16699 -23 9.5s-9 13.833 -9 22.5s3 16.167 9 22.5s13.667 9.5 23 9.5h384c9.33301 0 17 -3.16699 23 -9.5s9 -13.833 9 -22.5
c0 -6.66699 -2 -13 -6 -19l-369 -558h358c8.66699 0 16.167 -3 22.5 -9s9.5 -13.667 9.5 -23s-3.16699 -17 -9.5 -23s-13.833 -9 -22.5 -9z" />
    <glyph glyph-name="bracketleft" unicode="[" horiz-adv-x="259" 
d="M239 -120c0 -6.66699 -2.5 -12.667 -7.5 -18s-11.167 -8 -18.5 -8h-101c-9.33301 0 -17 3 -23 9s-9 13.667 -9 23v820c0 9.33301 3 17 9 23s13.667 9 23 9h101c7.33301 0 13.5 -2.66699 18.5 -8s7.5 -11.333 7.5 -18s-2.5 -12.667 -7.5 -18s-11.167 -8 -18.5 -8h-69v-780
h69c7.33301 0 13.5 -2.66699 18.5 -8s7.5 -11.333 7.5 -18z" />
    <glyph glyph-name="backslash" unicode="\" horiz-adv-x="407" 
d="M102 728l264 -779c2 -6 3 -11 3 -15c0 -9.33301 -3.16699 -17 -9.5 -23s-13.833 -9 -22.5 -9c-16 0 -26.333 7.66699 -31 23l-264 779c-2 6 -3 11 -3 15c0 8.66699 3.16699 16.167 9.5 22.5s13.833 9.5 22.5 9.5c16 0 26.333 -7.66699 31 -23z" />
    <glyph glyph-name="bracketright" unicode="]" horiz-adv-x="259" 
d="M20 -120c0 6.66699 2.66699 12.667 8 18s11.333 8 18 8h69v780h-69c-6.66699 0 -12.667 2.66699 -18 8s-8 11.333 -8 18s2.66699 12.667 8 18s11.333 8 18 8h101c8.66699 0 16.167 -3 22.5 -9s9.5 -13.667 9.5 -23v-820c0 -9.33301 -3.16699 -17 -9.5 -23
s-13.833 -9 -22.5 -9h-101c-6.66699 0 -12.667 2.66699 -18 8s-8 11.333 -8 18z" />
    <glyph glyph-name="asciicircum" unicode="^" horiz-adv-x="468" 
d="M379 353l-145.002 261l-145 -261c-4.66699 -8.66699 -12.334 -13 -23.001 -13c-7.33301 0 -13.666 2.66699 -18.999 8s-8 11.666 -8 18.999c0 4.66699 1 9 3 13l169 298c4.66699 8.66699 12.334 13 23.001 13s18.334 -4.33301 23.001 -13l169 -298c2 -4 3 -8.33301 3 -13
c0 -7.33301 -2.66699 -13.666 -8 -18.999s-11.666 -8 -18.999 -8c-10.667 0 -18.334 4.33301 -23.001 13z" />
    <glyph glyph-name="underscore" unicode="_" horiz-adv-x="406" 
d="M427 -70c0 -7.33301 -2.66699 -13.666 -8 -18.999s-11.666 -8 -18.999 -8h-394c-7.33301 0 -13.666 2.66699 -18.999 8s-8 11.666 -8 18.999s2.66699 13.666 8 18.999s11.666 8 18.999 8h394c7.33301 0 13.666 -2.66699 18.999 -8s8 -11.666 8 -18.999z" />
    <glyph glyph-name="grave" unicode="`" horiz-adv-x="370" 
d="M249 520c-10 -8.66699 -20.001 -8 -30.001 2l-97 98c-12 12 -11 24.667 3 38c14.667 13.333 27.334 13.333 38.001 0l89 -108c8.66699 -11.333 7.66699 -21.333 -3 -30z" />
    <glyph glyph-name="a" unicode="a" horiz-adv-x="467" 
d="M232 408c-47.333 0 -85.9971 -16.999 -115.997 -50.999c-8.66699 -9.33301 -17.334 -14 -26.001 -14c-8 0 -14.833 2.83301 -20.5 8.5s-8.5 12.5 -8.5 20.5c0 6 1.66699 11.667 5 17c33.333 52.667 88.666 79 165.999 79c57.333 0 101.666 -15.333 132.999 -46
s47 -72 47 -124v-275c0 -8.66699 -3 -16 -9 -22s-13.333 -9 -22 -9s-16 3 -22 9s-9 13.333 -9 22v36c-12 -22.667 -31 -40.334 -57 -53.001s-54.667 -19 -86 -19c-53.333 0 -95.5 12.5 -126.5 37.5s-46.5 60.167 -46.5 105.5c0 44 15.667 78.5 47 103.5s74 37.5 128 37.5
h141v27c0 34 -10.5 60.833 -31.5 80.5s-49.833 29.5 -86.5 29.5zM213.003 45.001c37.333 0 69.5 11.333 96.5 34s40.5 54 40.5 94v42h-141c-34 0 -60.833 -7.16699 -80.5 -21.5s-29.5 -35.5 -29.5 -63.5c0 -56.667 38 -85 114 -85z" />
    <glyph glyph-name="b" unicode="b" horiz-adv-x="501" 
d="M129 322l0.000976562 -137.999c0 -46 12 -80.667 36 -104s56 -35 96 -35c94 0 141 61 141 183c0 121.333 -47 182 -141 182c-17.333 0 -33.833 -3 -49.5 -9s-28.334 -13.333 -38.001 -22s-18 -17.334 -25 -26.001s-11.833 -16 -14.5 -22zM265.001 468.001
c134 0 201 -80 201 -240c0 -80.667 -17.667 -141 -53 -181s-86 -60 -152 -60c-59.333 0 -106.833 16.833 -142.5 50.5s-53.5 82.5 -53.5 146.5v496c0 9.33301 3.16699 17 9.5 23s13.833 9 22.5 9s16.167 -3 22.5 -9s9.5 -13.667 9.5 -23v-277c12.667 18 31 33.333 55 46
s51 19 81 19z" />
    <glyph glyph-name="c" unicode="c" horiz-adv-x="441" 
d="M35 228c0 80.667 17.832 140.834 53.499 180.501s86.5 59.5 152.5 59.5c38.667 0 71 -7.33301 97 -22s45 -30.334 57 -47.001c4.66699 -6.66699 7 -13 7 -19c0 -8.66699 -2.83301 -15.667 -8.5 -21s-12.5 -8 -20.5 -8c-8.66699 0 -16.667 4 -24 12
c-27.333 31.333 -63.333 47 -108 47c-94 0 -141 -60.667 -141 -182c0 -122 47 -183 141 -183c38.667 0 77.334 14.333 116.001 43c6.66699 4.66699 13 7 19 7c8 0 14.833 -2.83301 20.5 -8.5s8.5 -12.5 8.5 -20.5c0 -8.66699 -4.33301 -17 -13 -25
c-44 -36 -94.333 -54 -151 -54c-66 0 -116.833 20 -152.5 60s-53.5 100.333 -53.5 181z" />
    <glyph glyph-name="d" unicode="d" horiz-adv-x="501" 
d="M372 184v137.999c-1.33301 2.66699 -3 5.83398 -5 9.50098s-6.83301 10.667 -14.5 21s-16.167 19.333 -25.5 27s-21.833 14.667 -37.5 21s-32.167 9.5 -49.5 9.5c-94 0 -141 -60.667 -141 -182c0 -122 47 -183 141 -183c40 0 72 11.667 96 35s36 58 36 104zM236 467.999
c30 0 57 -6.33301 81 -19s42.333 -28 55 -46v277c0 9.33301 3 17 9 23s13.667 9 23 9s17 -3 23 -9s9 -13.667 9 -23v-496c0 -64 -17.833 -112.833 -53.5 -146.5s-83.167 -50.5 -142.5 -50.5c-66 0 -116.667 20 -152 60s-53 100.333 -53 181c0 160 67 240 201 240z" />
    <glyph glyph-name="e" unicode="e" horiz-adv-x="466" 
d="M35 228c0 76.667 18.001 135.832 54.001 177.499s86.667 62.5 152 62.5c30.667 0 57.667 -4.66699 81 -14s41.833 -21 55.5 -35s24.667 -30.167 33 -48.5s14 -35.333 17 -51s4.5 -31.167 4.5 -46.5c0 -10 -0.333008 -17.667 -1 -23s-2 -11.666 -4 -18.999
s-6 -12.833 -12 -16.5s-13.667 -5.5 -23 -5.5h-292c0 -50 13.5 -89.667 40.5 -119s63.833 -44 110.5 -44c42 0 82 14.333 120 43c6 4 12 6 18 6c8 0 14.833 -2.83301 20.5 -8.5s8.5 -12.5 8.5 -20.5s-3.66699 -15.667 -11 -23c-37.333 -37.333 -89.333 -56 -156 -56
c-68.667 0 -121.834 19.833 -159.501 59.5s-56.5 100.167 -56.5 181.5zM369.001 264.998c0 96.667 -42.667 145 -128 145c-42.667 0 -76 -12.833 -100 -38.5s-37.667 -61.167 -41 -106.5h269z" />
    <glyph glyph-name="f" unicode="f" horiz-adv-x="289" 
d="M85 394l-34 0.00195312c-8.66699 0 -15.834 2.83301 -21.501 8.5s-8.5 12.834 -8.5 21.501s2.83301 15.834 8.5 21.501s12.834 8.5 21.501 8.5h34v59c0 49.333 14.5 90.333 43.5 123s72.167 49 129.5 49c8.66699 0 15.834 -2.83301 21.501 -8.5s8.5 -12.834 8.5 -21.501
s-2.83301 -15.834 -8.5 -21.501s-12.834 -8.5 -21.501 -8.5c-37.333 0 -64.833 -10 -82.5 -30s-26.5 -47.333 -26.5 -82v-59h91c8.66699 0 15.834 -2.83301 21.501 -8.5s8.5 -12.834 8.5 -21.501s-2.83301 -15.834 -8.5 -21.501s-12.834 -8.5 -21.501 -8.5h-91v-370
c0 -9.33301 -3.16699 -17 -9.5 -23s-13.833 -9 -22.5 -9s-16.167 3 -22.5 9s-9.5 13.667 -9.5 23v370z" />
    <glyph glyph-name="g" unicode="g" horiz-adv-x="478" 
d="M229 468c42 0 77.6689 -8.33496 107.002 -25.002c9.33301 17.333 20.666 30.666 33.999 39.999s31.666 14 54.999 14c8 0 14.833 -2.83301 20.5 -8.5s8.5 -12.5 8.5 -20.5s-2.83301 -14.833 -8.5 -20.5s-12.5 -8.5 -20.5 -8.5c-22.667 0 -38.667 -10.333 -48 -31
c24 -29.333 36 -65.333 36 -108c0 -51.333 -16.333 -92.166 -49 -122.499s-77.667 -45.5 -135 -45.5c-42.667 0 -78.667 8.33301 -108 25c-12 -10 -18 -22 -18 -36c0 -28 24.667 -42 74 -42h103c51.333 0 93.333 -11.5 126 -34.5s49 -56.833 49 -101.5
c0 -49.333 -19.667 -85.666 -59 -108.999s-91.333 -35 -156 -35c-38 0 -72 3.83301 -102 11.5s-56 22.334 -78 44.001s-33 49.834 -33 84.501c0 46.667 25.333 80.334 76 101.001c-18.667 6 -33.667 16.167 -45 30.5s-17 31.166 -17 50.499c0 28.667 13.333 52 40 70
c-24 30 -36 66.333 -36 109c0 51.333 16.333 92.166 49 122.499s77.667 45.5 135 45.5zM229.002 189.998c38 0 67.333 10 88 30s31 46.667 31 80s-10.333 60 -31 80s-50 30 -88 30s-67.333 -10 -88 -30s-31 -46.667 -31 -80s10.333 -60 31 -80s50 -30 88 -30z
M390.002 -57.002c0 50.667 -36.667 76.001 -110 76.001h-104c-56 -9.33301 -84 -36 -84 -80c0 -28.667 14 -49.834 42 -63.501s63.667 -20.5 107 -20.5s79 7 107 21s42 36.333 42 67z" />
    <glyph glyph-name="h" unicode="h" horiz-adv-x="501" 
d="M262 468c122.667 0 183.999 -59 183.999 -177v-267c0 -9.33301 -3 -17 -9 -23s-13.667 -9 -23 -9s-17 3 -23 9s-9 13.667 -9 23v254c0 43.333 -8.66699 76.333 -26 99s-48.666 34 -93.999 34c-88.667 0 -133 -46.667 -133 -140v-247c0 -9.33301 -3.16699 -17 -9.5 -23
s-13.833 -9 -22.5 -9s-16.167 3 -22.5 9s-9.5 13.667 -9.5 23v656c0 9.33301 3.16699 17 9.5 23s13.833 9 22.5 9s16.167 -3 22.5 -9s9.5 -13.667 9.5 -23v-282c10 20 26.833 36.667 50.5 50s51.167 20 82.5 20z" />
    <glyph glyph-name="i" unicode="i" horiz-adv-x="193" 
d="M128 430v-406c0 -9.33301 -3 -17 -9 -23s-13.667 -9 -23 -9s-17 3 -23 9s-9 13.667 -9 23v406c0 9.33301 3 17 9 23s13.667 9 23 9s17 -3 23 -9s9 -13.667 9 -23zM96 556c-25.333 0 -38 12.667 -38 38c0 26.667 12.667 40 38 40s38 -13.333 38 -40
c0 -25.333 -12.667 -38 -38 -38z" />
    <glyph glyph-name="j" unicode="j" horiz-adv-x="194" 
d="M65 -35v465c0 9.33301 3.16699 17 9.5 23s13.833 9 22.5 9s16.167 -3 22.5 -9s9.5 -13.667 9.5 -23v-465c0 -42.667 -13.833 -78.334 -41.5 -107.001s-62.5 -43 -104.5 -43c-8.66699 0 -15.834 2.83301 -21.501 8.5s-8.5 12.834 -8.5 21.501s2.83301 15.834 8.5 21.501
s12.834 8.5 21.501 8.5c24 0 43.667 8.66699 59 26s23 38.666 23 63.999zM97 556c-25.333 0 -38 12.667 -38 38c0 26.667 12.667 40 38 40s38 -13.333 38 -40c0 -25.333 -12.667 -38 -38 -38z" />
    <glyph glyph-name="k" unicode="k" horiz-adv-x="453" 
d="M395 -8c-10.667 0 -20 5.00098 -28 15.001l-177 227l-61 -49v-161c0 -9.33301 -3.16699 -17 -9.5 -23s-13.833 -9 -22.5 -9s-16.167 3 -22.5 9s-9.5 13.667 -9.5 23v656c0 9.33301 3.16699 17 9.5 23s13.833 9 22.5 9s16.167 -3 22.5 -9s9.5 -13.667 9.5 -23v-419
l236 193c6 5.33301 13.333 8 22 8s16.167 -3 22.5 -9s9.5 -13.667 9.5 -23c0 -10.667 -4.33301 -19.334 -13 -26.001l-164 -131l178 -229c4.66699 -5.33301 7 -12 7 -20c0 -9.33301 -3.16699 -17 -9.5 -23s-13.833 -9 -22.5 -9z" />
    <glyph glyph-name="l" unicode="l" horiz-adv-x="219" 
d="M97 712c8.66699 0 16.167 -3.16504 22.5 -9.49805s9.5 -13.833 9.5 -22.5v-571c0 -38 13.333 -57 40 -57c8 0 15 -2.83301 21 -8.5s9 -12.834 9 -21.501s-3 -15.834 -9 -21.501s-13 -8.5 -21 -8.5c-69.333 0 -104 39 -104 117v571c0 8.66699 3.16699 16.167 9.5 22.5
s13.833 9.5 22.5 9.5z" />
    <glyph glyph-name="m" unicode="m" horiz-adv-x="808" 
d="M564 468c126 0 189.001 -59 189.001 -177v-267c0 -9.33301 -3.16699 -17 -9.5 -23s-13.833 -9 -22.5 -9s-16.167 3 -22.5 9s-9.5 13.667 -9.5 23v254c0 42.667 -9.33301 75.5 -28 98.5s-51 34.5 -97 34.5c-42 0 -73.333 -10.5 -94 -31.5s-31 -50.5 -31 -88.5v-267
c0 -9.33301 -3.16699 -17 -9.5 -23s-13.833 -9 -22.5 -9s-16.167 3 -22.5 9s-9.5 13.667 -9.5 23v254c0 43.333 -9 76.333 -27 99s-50 34 -96 34c-82 0 -123 -46.667 -123 -140v-247c0 -9.33301 -3.16699 -17 -9.5 -23s-13.833 -9 -22.5 -9s-16.167 3 -22.5 9
s-9.5 13.667 -9.5 23v406c0 9.33301 3.16699 17 9.5 23s13.833 9 22.5 9s16.167 -3 22.5 -9s9.5 -13.667 9.5 -23v-32c9.33301 20 25.666 36.667 48.999 50s50.333 20 81 20c78 0 131 -23.333 159 -70c30 46.667 78.667 70 146 70z" />
    <glyph glyph-name="n" unicode="n" horiz-adv-x="501" 
d="M262 468c122.667 0 183.999 -59 183.999 -177v-267c0 -9.33301 -3 -17 -9 -23s-13.667 -9 -23 -9s-17 3 -23 9s-9 13.667 -9 23v254c0 43.333 -8.66699 76.333 -26 99s-48.666 34 -93.999 34c-88.667 0 -133 -46.667 -133 -140v-247c0 -9.33301 -3.16699 -17 -9.5 -23
s-13.833 -9 -22.5 -9s-16.167 3 -22.5 9s-9.5 13.667 -9.5 23v406c0 9.33301 3.16699 17 9.5 23s13.833 9 22.5 9s16.167 -3 22.5 -9s9.5 -13.667 9.5 -23v-32c10 20 26.833 36.667 50.5 50s51.167 20 82.5 20z" />
    <glyph glyph-name="o" unicode="o" horiz-adv-x="490" 
d="M245 468c66.667 0 118.333 -20 155 -60s55 -100 55 -180s-18.333 -140.167 -55 -180.5s-88.334 -60.5 -155.001 -60.5c-66 0 -117.5 20.167 -154.5 60.5s-55.5 100.5 -55.5 180.5s18.333 140 55 180s88.334 60 155.001 60zM244.999 45c96.667 0 145 61 145 183
c0 121.333 -48.333 182 -145 182s-145 -60.667 -145 -182c0 -122 48.333 -183 145 -183z" />
    <glyph glyph-name="p" unicode="p" horiz-adv-x="509" 
d="M97 462c8.66699 0 16.168 -3.16699 22.501 -9.5s9.5 -13.833 9.5 -22.5v-32c10.667 18.667 28.167 35 52.5 49s52.166 21 83.499 21c66.667 0 118.167 -20 154.5 -60s54.5 -100 54.5 -180s-18.167 -140.167 -54.5 -180.5s-87.833 -60.5 -154.5 -60.5
c-31.333 0 -58.833 6.83301 -82.5 20.5s-41.5 30.167 -53.5 49.5v-226c0 -8.66699 -3.16699 -16.167 -9.5 -22.5s-13.833 -9.5 -22.5 -9.5s-16.167 3.16699 -22.5 9.5s-9.5 13.833 -9.5 22.5v599c0 8.66699 3.16699 16.167 9.5 22.5s13.833 9.5 22.5 9.5zM127.001 228
c0 -61.333 12.668 -107.167 38.001 -137.5s58.666 -45.5 99.999 -45.5c96 0 144 61 144 183c0 121.333 -48.667 182 -146 182c-40 0 -72.667 -15 -98 -45s-38 -75.667 -38 -137z" />
    <glyph glyph-name="q" unicode="q" horiz-adv-x="490" 
d="M372 133l-0.000976562 137.999c0 46 -12 80.667 -36 104s-56 35 -96 35c-94 0 -141 -61 -141 -183c0 -121.333 47 -182 141 -182c17.333 0 33.833 3 49.5 9s28.334 13.333 38.001 22s18 17.334 25 26.001s12.167 16 15.5 22zM235.999 -13.001c-134 0 -201 80 -201 240
c0 80.667 17.667 141 53 181s86 60 152 60c59.333 0 106.833 -16.833 142.5 -50.5s53.5 -82.5 53.5 -146.5v-440c0 -8.66699 -3 -16.167 -9 -22.5s-13.667 -9.5 -23 -9.5s-17 3.16699 -23 9.5s-9 13.833 -9 22.5v221c-12.667 -18 -31 -33.333 -55 -46s-51 -19 -81 -19z" />
    <glyph glyph-name="r" unicode="r" horiz-adv-x="309" 
d="M129 430l0.000976562 -44.001c10.667 24 28.167 43.333 52.5 58s53.166 22 86.499 22c8.66699 0 16 -3 22 -9s9 -13.333 9 -22s-3 -16 -9 -22s-13.333 -9 -22 -9c-44.667 0 -79 -14.167 -103 -42.5s-36 -66.166 -36 -113.499v-224c0 -9.33301 -3.16699 -17 -9.5 -23
s-13.833 -9 -22.5 -9s-16.167 3 -22.5 9s-9.5 13.667 -9.5 23v406c0 9.33301 3.16699 17 9.5 23s13.833 9 22.5 9s16.167 -3 22.5 -9s9.5 -13.667 9.5 -23z" />
    <glyph glyph-name="s" unicode="s" horiz-adv-x="424" 
d="M207 406c-59.333 0 -88.999 -20.001 -88.999 -60.001c0 -19.333 9 -35.333 27 -48s39.833 -23.167 65.5 -31.5s51.5 -17.5 77.5 -27.5s48 -25 66 -45s27 -44.667 27 -74c0 -43.333 -15.833 -76.166 -47.5 -98.499s-72.5 -33.5 -122.5 -33.5
c-38 0 -72.333 7.33301 -103 22s-53.334 31.334 -68.001 50.001c-4.66699 6.66699 -7 13 -7 19c0 8 2.83301 14.833 8.5 20.5s12.5 8.5 20.5 8.5s15.333 -3.33301 22 -10c32.667 -32.667 75 -49 127 -49c31.333 0 56.833 5.66699 76.5 17s29.5 29.333 29.5 54
c0 18.667 -9 34.167 -27 46.5s-40 22.666 -66 30.999s-51.833 17.5 -77.5 27.5s-47.5 25.167 -65.5 45.5s-27 45.5 -27 75.5c0 40 14.167 70.167 42.5 90.5s65.166 30.5 110.499 30.5c69.333 0 120 -21.333 152 -64c4.66699 -6 7 -12.333 7 -19
c0 -8 -2.83301 -14.833 -8.5 -20.5s-12.5 -8.5 -20.5 -8.5s-15 3 -21 9c-29.333 28 -65.666 42 -108.999 42z" />
    <glyph glyph-name="t" unicode="t" horiz-adv-x="279" 
d="M90 454v105.004c0 8.66699 3.16699 16.167 9.5 22.5s13.833 9.5 22.5 9.5s16.167 -3.16699 22.5 -9.5s9.5 -13.833 9.5 -22.5v-105h65c8.66699 0 15.834 -2.83301 21.501 -8.5s8.5 -12.834 8.5 -21.501s-2.83301 -15.834 -8.5 -21.501s-12.834 -8.5 -21.501 -8.5h-65
v-276c0 -20.667 5.33301 -36.834 16 -48.501s24.667 -17.5 42 -17.5c8.66699 0 16 -2.83301 22 -8.5s9 -12.834 9 -21.501s-3 -15.834 -9 -21.501s-13.333 -8.5 -22 -8.5c-38.667 0 -68.667 11.667 -90 35s-32 53.666 -32 90.999v276h-39
c-8.66699 0 -15.834 2.83301 -21.501 8.5s-8.5 12.834 -8.5 21.501s2.83301 15.834 8.5 21.501s12.834 8.5 21.501 8.5h39z" />
    <glyph glyph-name="u" unicode="u" horiz-adv-x="482" 
d="M87 462c8.66699 0 16.1699 -3.16699 22.5029 -9.5s9.5 -13.833 9.5 -22.5v-261c0 -37.333 8.66699 -66.833 26 -88.5s49.333 -32.5 96 -32.5s78.667 10.833 96 32.5s26 51.167 26 88.5v261c0 8.66699 3.16699 16.167 9.5 22.5s14.166 9.5 23.499 9.5
c8.66699 0 16 -3.16699 22 -9.5s9 -13.833 9 -22.5v-261c0 -55.333 -13.333 -99.5 -40 -132.5s-75.334 -49.5 -146.001 -49.5s-119.334 16.5 -146.001 49.5s-40 77.167 -40 132.5v261c0 9.33301 3.16699 17 9.5 23s13.833 9 22.5 9z" />
    <glyph glyph-name="v" unicode="v" horiz-adv-x="438" 
d="M219 -8c-14 0 -24 6.66699 -30 20l-170 404c-2 6 -3 10.667 -3 14c0 9.33301 3 17 9 23s13.667 9 23 9c14.667 0 24.667 -7 30 -21l141 -345l141 345c5.33301 14 15.333 21 30 21c9.33301 0 17 -3 23 -9s9 -13.667 9 -23c0 -3.33301 -1 -8 -3 -14l-170 -404
c-6 -13.333 -16 -20 -30 -20z" />
    <glyph glyph-name="w" unicode="w" horiz-adv-x="640" 
d="M412 15l-92 317l-92 -317c-4.66699 -15.333 -15 -23 -31 -23c-14.667 0 -24.667 7 -30 21l-147 403c-2 5.33301 -3 10 -3 14c0 9.33301 3.16699 17 9.5 23s13.833 9 22.5 9c14.667 0 24.667 -7 30 -21l116 -331l95 331c4 14 14 21 30 21s26 -7 30 -21l95 -331l116 331
c5.33301 14 15.333 21 30 21c8.66699 0 16.167 -3 22.5 -9s9.5 -13.667 9.5 -23c0 -4 -1 -8.66699 -3 -14l-147 -403c-5.33301 -14 -15.333 -21 -30 -21c-16 0 -26.333 7.66699 -31 23z" />
    <glyph glyph-name="x" unicode="x" horiz-adv-x="412" 
d="M331 5l-125.002 177l-125 -177c-6 -8.66699 -14.667 -13 -26 -13c-8.66699 0 -16.167 3 -22.5 9s-9.5 13.667 -9.5 23c0 7.33301 2 13.666 6 18.999l137 189l-133 179c-4 6.66699 -6 13 -6 19c0 9.33301 3.16699 17 9.5 23s13.833 9 22.5 9
c10.667 0 19.334 -4.33301 26.001 -13l121 -166l121 166c6.66699 8.66699 15.334 13 26.001 13c8.66699 0 16.167 -3 22.5 -9s9.5 -13.667 9.5 -23c0 -6 -2 -12.333 -6 -19l-133 -179l137 -189c4 -5.33301 6 -11.666 6 -18.999c0 -9.33301 -3.16699 -17 -9.5 -23
s-13.833 -9 -22.5 -9c-11.333 0 -20 4.33301 -26 13z" />
    <glyph glyph-name="y" unicode="y" horiz-adv-x="438" 
d="M35 -141c17.333 0 32.668 2.66504 46.001 7.99805s24.166 11.333 32.499 18s17.333 18.5 27 35.5s17 31 22 42s12.833 29.833 23.5 56.5l-167 397c-2 6 -3 10.667 -3 14c0 9.33301 3 17 9 23s13.667 9 23 9c14.667 0 24.667 -7 30 -21l141 -345l141 345
c5.33301 14 15.333 21 30 21c9.33301 0 17 -3 23 -9s9 -13.667 9 -23c0 -3.33301 -1 -8 -3 -14l-197 -469c-21.333 -50.667 -46.333 -88 -75 -112s-66 -36 -112 -36c-8.66699 0 -15.834 2.83301 -21.501 8.5s-8.5 12.834 -8.5 21.501s2.83301 15.834 8.5 21.501
s12.834 8.5 21.501 8.5z" />
    <glyph glyph-name="z" unicode="z" horiz-adv-x="405" 
d="M38 424c0 8.66699 2.83301 15.832 8.5 21.499s12.834 8.5 21.501 8.5h274c8.66699 0 15.834 -2.83301 21.501 -8.5s8.5 -12.834 8.5 -21.501c0 -7.33301 -2.33301 -14 -7 -20l-249 -342h231c8.66699 0 16 -3 22 -9s9 -13.333 9 -22s-3 -16 -9 -22s-13.333 -9 -22 -9h-293
c-8.66699 0 -15.834 2.83301 -21.501 8.5s-8.5 12.834 -8.5 21.501c0 7.33301 2.33301 14 7 20l252 344h-215c-8.66699 0 -15.834 2.83301 -21.501 8.5s-8.5 12.834 -8.5 21.501z" />
    <glyph glyph-name="braceleft" unicode="{" horiz-adv-x="338" 
d="M312 -118c0 -7.33301 -2.83496 -13.835 -8.50195 -19.502s-12.167 -8.5 -19.5 -8.5c-47.333 0 -82.666 11.333 -105.999 34s-35 50.334 -35 83.001c0 17.333 2 52 6 104s6 87.333 6 106c0 36 -8.66699 60.333 -26 73s-42 19 -74 19h-7
c-6.66699 0 -12.167 2.16699 -16.5 6.5s-6.5 9.83301 -6.5 16.5s2.16699 12.167 6.5 16.5s9.83301 6.5 16.5 6.5h7c32 0 56.667 6.33301 74 19s26 37.334 26 74.001c0 21.333 -2 52.666 -6 93.999s-6 80 -6 116c0 32 11.833 59.333 35.5 82s58.834 34 105.501 34
c7.33301 0 13.833 -2.83301 19.5 -8.5s8.5 -12.167 8.5 -19.5s-2.83301 -13.833 -8.5 -19.5s-12.167 -8.5 -19.5 -8.5c-49.333 0 -74 -24.333 -74 -73c0 -15.333 1.33301 -46 4 -92s4 -78.333 4 -97c0 -36.667 -10.5 -66.5 -31.5 -89.5s-50.833 -34.5 -89.5 -34.5
c38.667 0 68.5 -11.5 89.5 -34.5s31.5 -52.833 31.5 -89.5c0 -16 -1.33301 -47.667 -4 -95s-4 -78.666 -4 -93.999c0 -48.667 24.667 -73 74 -73c7.33301 0 13.833 -2.83301 19.5 -8.5s8.5 -12.167 8.5 -19.5z" />
    <glyph glyph-name="bar" unicode="|" horiz-adv-x="216" 
d="M141 775v-902c0 -8.66699 -3.16699 -16.334 -9.5 -23.001s-14.166 -10 -23.499 -10s-17.166 3.33301 -23.499 10s-9.5 14.334 -9.5 23.001v902c0 8.66699 3.16699 16.334 9.5 23.001s14.166 10 23.499 10s17.166 -3.33301 23.499 -10s9.5 -14.334 9.5 -23.001z" />
    <glyph glyph-name="braceright" unicode="}" horiz-adv-x="338" 
d="M26 -118c0 7.33301 2.83105 13.835 8.49805 19.502s12.167 8.5 19.5 8.5c49.333 0 74 24.333 74 73c0 15.333 -1.33301 46.666 -4 93.999s-4 79 -4 95c0 36.667 10.5 66.5 31.5 89.5s50.833 34.5 89.5 34.5c-38.667 0 -68.5 11.5 -89.5 34.5s-31.5 52.833 -31.5 89.5
c0 18.667 1.33301 51 4 97s4 76.667 4 92c0 48.667 -24.667 73 -74 73c-7.33301 0 -13.833 2.83301 -19.5 8.5s-8.5 12.167 -8.5 19.5s2.83301 13.833 8.5 19.5s12.167 8.5 19.5 8.5c46.667 0 81.834 -11.333 105.501 -34s35.5 -50 35.5 -82c0 -36 -2 -74.667 -6 -116
s-6 -72.666 -6 -93.999c0 -36.667 8.66699 -61.334 26 -74.001s42 -19 74 -19h7c6.66699 0 12.167 -2.16699 16.5 -6.5s6.5 -9.83301 6.5 -16.5s-2.16699 -12.167 -6.5 -16.5s-9.83301 -6.5 -16.5 -6.5h-7c-32 0 -56.667 -6.33301 -74 -19s-26 -37 -26 -73
c0 -18.667 2 -54 6 -106s6 -86.667 6 -104c0 -32.667 -11.667 -60.334 -35 -83.001s-58.666 -34 -105.999 -34c-7.33301 0 -13.833 2.83301 -19.5 8.5s-8.5 12.167 -8.5 19.5z" />
    <glyph glyph-name="asciitilde" unicode="~" horiz-adv-x="477" 
d="M329 293c12 0 22.166 2.5 30.499 7.5s14 9.66699 17 14s6.5 10.833 10.5 19.5c5.33301 10.667 13.666 16 24.999 16c6.66699 0 12.667 -2.66699 18 -8s8 -11.333 8 -18c0 -4 -0.666992 -8 -2 -12c-6.66699 -20.667 -19 -37.834 -37 -51.501s-41.333 -20.5 -70 -20.5
s-61.5 10.833 -98.5 32.5s-64.833 32.5 -83.5 32.5c-12 0 -22.167 -2.5 -30.5 -7.5s-14 -9.66699 -17 -14s-6.5 -10.833 -10.5 -19.5c-5.33301 -10.667 -13.666 -16 -24.999 -16c-6.66699 0 -12.667 2.66699 -18 8s-8 11.333 -8 18c0 4 0.666992 8 2 12
c6.66699 20.667 19 37.834 37 51.501s41.333 20.5 70 20.5c27.333 0 59.833 -10.833 97.5 -32.5s65.834 -32.5 84.501 -32.5z" />
    <glyph glyph-name="nbspace" unicode="&#xa0;" horiz-adv-x="283" 
 />
    <glyph glyph-name="exclamdown" unicode="&#xa1;" horiz-adv-x="208" 
d="M104 -221c-24 0 -35.667 11.667 -35 35l15 471c0 12 6.66699 18 20 18s20 -6 20 -18l15 -471c0.666992 -23.333 -11 -35 -35 -35zM104 468c31.333 0 47 -15.667 47 -47c0 -32 -15.667 -48 -47 -48s-47 16 -47 48c0 31.333 15.667 47 47 47z" />
    <glyph glyph-name="cent" unicode="&#xa2;" horiz-adv-x="441" 
d="M35 228c0 148 59.999 227.333 179.999 238v57c0 7.33301 2.5 13.5 7.5 18.5s11.167 7.5 18.5 7.5s13.5 -2.5 18.5 -7.5s7.5 -11.167 7.5 -18.5v-57c32 -3.33301 58.667 -11.833 80 -25.5s37.333 -27.5 48 -41.5c4.66699 -6.66699 7 -13 7 -19
c0 -8.66699 -2.83301 -15.667 -8.5 -21s-12.5 -8 -20.5 -8c-8.66699 0 -16.667 4 -24 12c-27.333 31.333 -63.333 47 -108 47c-94 0 -141 -60.667 -141 -182c0 -122 47 -183 141 -183c38.667 0 77.334 14.333 116.001 43c6.66699 4.66699 13 7 19 7
c8 0 14.833 -2.83301 20.5 -8.5s8.5 -12.5 8.5 -20.5c0 -8.66699 -4.33301 -17 -13 -25c-38 -30.667 -79.667 -48.334 -125 -53.001v-69c0 -7.33301 -2.5 -13.5 -7.5 -18.5s-11.167 -7.5 -18.5 -7.5s-13.5 2.5 -18.5 7.5s-7.5 11.167 -7.5 18.5v70
c-120 10.667 -180 90.334 -180 239.001z" />
    <glyph glyph-name="sterling" unicode="&#xa3;" horiz-adv-x="591" 
d="M524 119c9.33301 0 16.999 -3.16895 22.999 -9.50195s9 -13.833 9 -22.5c0 -5.33301 -1.33301 -10.666 -4 -15.999c-29.333 -57.333 -77.666 -86 -144.999 -86c-21.333 0 -52.166 7.83301 -92.499 23.5s-71.5 23.5 -93.5 23.5c-10.667 0 -20.667 -0.833008 -30 -2.5
s-17.833 -4.16699 -25.5 -7.5s-13.834 -6.16602 -18.501 -8.49902s-9.83398 -5.5 -15.501 -9.5s-8.83398 -6 -9.50098 -6c-8 -4.66699 -14.667 -7 -20 -7c-9.33301 0 -17 3.16699 -23 9.5s-9 13.833 -9 22.5c0 9.33301 4.66699 18.333 14 27
c18.667 15.333 36.667 38.166 54 68.499s26 57.166 26 80.499c0 24 -7.33301 51.667 -22 83h-48c-8.66699 0 -15.834 2.83301 -21.501 8.5s-8.5 12.834 -8.5 21.501s2.83301 15.834 8.5 21.501s12.834 8.5 21.501 8.5h19c-28 52.667 -42 104.334 -42 155.001
c0 55.333 19.667 100.833 59 136.5s91.333 53.5 156 53.5c112 0 186 -44.333 222 -133c2 -5.33301 3 -10 3 -14c0 -9.33301 -3.16699 -17 -9.5 -23s-13.833 -9 -22.5 -9c-14 0 -24.333 7.66699 -31 23c-26 63.333 -80 95 -162 95c-44 0 -80.167 -11.667 -108.5 -35
s-42.5 -54.666 -42.5 -93.999c0 -44 17 -95.667 51 -155h175c8.66699 0 15.834 -2.83301 21.501 -8.5s8.5 -12.834 8.5 -21.501s-2.83301 -15.834 -8.5 -21.501s-12.834 -8.5 -21.501 -8.5h-149c10 -22 15 -49.667 15 -83c0 -46.667 -19.667 -87.667 -59 -123
c14.667 8.66699 32 13 52 13c26.667 0 59.334 -7.16699 98.001 -21.5s66.334 -21.5 83.001 -21.5c44.667 0 76 18.333 94 55c6 12 15.667 18 29 18z" />
    <glyph glyph-name="currency" unicode="&#xa4;" horiz-adv-x="467" 
d="M235 126c-41.333 0 -77.333 11.666 -108 34.999l-46 -46c-6.66699 -6.66699 -14 -10 -22 -10c-8.66699 0 -15.834 3 -21.501 9s-8.5 13.333 -8.5 22s3.33301 16.334 10 23.001l45 47c-20.667 30.667 -31 66 -31 106c0 37.333 10.667 73.333 32 108l-47 48
c-6 6.66699 -9 14 -9 22c0 8.66699 2.83301 16 8.5 22s12.834 9 21.501 9c8 0 15.333 -3.33301 22 -10l46 -48c34.667 23.333 70.667 35 108 35c40 0 75.333 -11 106 -33l45 46c6 6.66699 13.333 10 22 10s16 -3 22 -9s9 -13.333 9 -22c0 -8 -3.66699 -15.667 -11 -23
l-45 -46c21.333 -31.333 32 -67.666 32 -108.999c0 -38 -10.667 -73.667 -32 -107l45 -46c7.33301 -8.66699 11 -16.334 11 -23.001c0 -8.66699 -3 -16 -9 -22s-13.333 -9 -22 -9s-16 3.33301 -22 10l-44 45c-30 -22.667 -65.667 -34 -107 -34zM235 186.999
c34.667 0 62.834 12 84.501 36s32.5 53.667 32.5 89s-10.833 65 -32.5 89s-49.834 36 -84.501 36c-34 0 -62.333 -12.167 -85 -36.5s-34 -53.833 -34 -88.5s11.333 -64.167 34 -88.5s51 -36.5 85 -36.5z" />
    <glyph glyph-name="yen" unicode="&#xa5;" 
d="M435 190c0 -7.33301 -2.66895 -13.666 -8.00195 -18.999s-11.666 -8 -18.999 -8h-115v-137c0 -9.33301 -3.33301 -17.333 -10 -24s-14.667 -10 -24 -10s-17.333 3.33301 -24 10s-10 14.667 -10 24v137h-115c-7.33301 0 -13.666 2.66699 -18.999 8s-8 11.666 -8 18.999
s2.66699 13.666 8 18.999s11.666 8 18.999 8h115v47h-115c-7.33301 0 -13.666 2.66699 -18.999 8s-8 11.666 -8 18.999s2.66699 13.666 8 18.999s11.666 8 18.999 8h112l-198 311c-3.33301 5.33301 -5 11.333 -5 18c0 9.33301 3.33301 17.333 10 24s14.667 10 24 10
c12.667 0 22.334 -5.33301 29.001 -16l177 -284l177 284c6.66699 10.667 16.334 16 29.001 16c9.33301 0 17.333 -3.33301 24 -10s10 -14.667 10 -24c0 -6.66699 -1.66699 -12.667 -5 -18l-198 -311h112c7.33301 0 13.666 -2.66699 18.999 -8s8 -11.666 8 -18.999
s-2.66699 -13.666 -8 -18.999s-11.666 -8 -18.999 -8h-115v-47h115c7.33301 0 13.666 -2.66699 18.999 -8s8 -11.666 8 -18.999z" />
    <glyph glyph-name="brokenbar" unicode="&#xa6;" horiz-adv-x="216" 
d="M141 775v-386c0 -8.66699 -3.16699 -16.334 -9.5 -23.001s-14.166 -10 -23.499 -10s-17.166 3.33301 -23.499 10s-9.5 14.334 -9.5 23.001v386c0 8.66699 3.16699 16.334 9.5 23.001s14.166 10 23.499 10s17.166 -3.33301 23.499 -10s9.5 -14.334 9.5 -23.001zM141 260
v-387c0 -8.66699 -3.16699 -16.334 -9.5 -23.001s-14.166 -10 -23.499 -10s-17.166 3.33301 -23.499 10s-9.5 14.334 -9.5 23.001v387c0 9.33301 3.16699 17.166 9.5 23.499s14.166 9.5 23.499 9.5s17.166 -3.16699 23.499 -9.5s9.5 -14.166 9.5 -23.499z" />
    <glyph glyph-name="section" unicode="&#xa7;" horiz-adv-x="504" 
d="M401 206c0 26 -10.168 48.5 -30.501 67.5s-42.666 33 -66.999 42s-53.5 19.167 -87.5 30.5s-58.667 21.333 -74 30c-26.667 -22.667 -40 -55 -40 -97c0 -26 10 -48.5 30 -67.5s42.333 -32.833 67 -41.5l88 -30c34 -11.333 58.667 -21.333 74 -30
c26.667 22.667 40 54.667 40 96zM35.999 279c0 50 18 94.666 54 133.999c-26 31.333 -39 68 -39 110c0 48 17.333 87.333 52 118s86.667 46 156 46c83.333 0 149 -30 197 -90c4.66699 -6 7 -12.333 7 -19c0 -8.66699 -3 -16 -9 -22s-13.333 -9 -22 -9
s-16.667 3.66699 -24 11c-45.333 45.333 -95 68 -149 68c-48 0 -83.667 -9.66699 -107 -29s-35 -44 -35 -74c0 -31.333 12 -56.833 36 -76.5s53.167 -34.667 87.5 -45s68.666 -21.666 102.999 -33.999s63.5 -31.833 87.5 -58.5s36 -61 36 -103
c0 -49.333 -18 -93.666 -54 -132.999c26 -31.333 39 -68 39 -110c0 -48 -17.333 -87.333 -52 -118s-86.667 -46 -156 -46c-83.333 0 -149 30 -197 90c-4.66699 6 -7 12.333 -7 19c0 8.66699 3 16 9 22s13.333 9 22 9s16.667 -3.66699 24 -11c45.333 -45.333 95 -68 149 -68
c48 0 83.667 9.66699 107 29s35 44 35 74c0 31.333 -12 56.666 -36 75.999s-53.167 34.333 -87.5 45s-68.666 22 -102.999 34s-63.5 31.333 -87.5 58s-36 61 -36 103z" />
    <glyph glyph-name="dieresis" unicode="&#xa8;" horiz-adv-x="317" 
d="M80 534c-24 0 -36 12.333 -36 37c0 25.333 12 38 36 38s36 -12.667 36 -38c0 -24.667 -12 -37 -36 -37zM237 534c-24 0 -36 12.333 -36 37c0 25.333 12 38 36 38s36 -12.667 36 -38c0 -24.667 -12 -37 -36 -37z" />
    <glyph glyph-name="copyright" unicode="&#xa9;" horiz-adv-x="801" 
d="M397 155c-104.667 0 -157 60.666 -157 181.999c0 122 52.333 183 157 183c29.333 0 55.333 -6.16699 78 -18.5s38 -25.833 46 -40.5c2 -4 3 -8 3 -12c0 -7.33301 -2.33301 -13.333 -7 -18s-10.667 -7 -18 -7s-14 3 -20 9c-24.667 24.667 -52 37 -82 37
c-34.667 0 -60.334 -10.167 -77.001 -30.5s-25 -54.5 -25 -102.5c0 -88 34 -132 102 -132c34.667 0 62 10 82 30c6.66699 6.66699 13.334 10 20.001 10c7.33301 0 13.333 -2.5 18 -7.5s7 -10.833 7 -17.5c0 -5.33301 -2 -10.666 -6 -15.999
c-26 -32.667 -66.333 -49 -121 -49zM400 686.999c113.333 0 199.668 -29.1689 259.001 -87.502s89 -146.166 89 -263.499c0 -116.667 -29.833 -204.167 -89.5 -262.5s-145.834 -87.5 -258.501 -87.5c-111.333 0 -197 29.333 -257 88s-90 146 -90 262
c0 116.667 30 204.334 90 263.001s145.667 88 257 88zM400.002 37.9971c195.333 0 293 99.333 293 298c0 199.333 -97.667 299 -293 299c-96.667 0 -169 -24.5 -217 -73.5s-72 -124.167 -72 -225.5s24 -176.333 72 -225s120.333 -73 217 -73z" />
    <glyph glyph-name="ordfeminine" unicode="&#xaa;" horiz-adv-x="342" 
d="M321 288c0 -5.33301 -1.83301 -9.83301 -5.5 -13.5s-8.16699 -5.5 -13.5 -5.5h-262c-5.33301 0 -9.83301 1.83301 -13.5 5.5s-5.5 8.16699 -5.5 13.5s1.83301 9.83301 5.5 13.5s8.16699 5.5 13.5 5.5h262c5.33301 0 9.83301 -1.83301 13.5 -5.5s5.5 -8.16699 5.5 -13.5z
M175 648c-26.667 0 -50.333 -11.001 -71 -33.001c-4.66699 -4.66699 -10 -7 -16 -7c-5.33301 0 -10 2 -14 6s-6 8.66699 -6 14c0 4 1.66699 8.66699 5 14c22 30 56 45 102 45c43.333 0 75.5 -9.66699 96.5 -29s31.5 -45.666 31.5 -78.999v-192
c0 -6 -2.16699 -11.167 -6.5 -15.5s-9.5 -6.5 -15.5 -6.5s-11.167 2.16699 -15.5 6.5s-6.5 9.5 -6.5 15.5v19c-19.333 -30 -50 -45 -92 -45c-37.333 0 -66.833 8.66699 -88.5 26s-32.5 41.333 -32.5 72c0 32 11.167 56.167 33.5 72.5s52.5 24.5 90.5 24.5h89v24
c0 45.333 -28 68 -84 68zM167.001 397.999c26.667 0 48.667 7.33203 66 21.999s26 35.334 26 62.001v37h-89c-53.333 0 -80 -20 -80 -60c0 -40.667 25.667 -61 77 -61z" />
    <glyph glyph-name="guillemotleft" unicode="&#xab;" horiz-adv-x="522" 
d="M78 212c0 6 2.33301 12.002 7 18.002l163 192c5.33301 6 11.333 9 18 9s12.334 -2.33301 17.001 -7s7 -10.334 7 -17.001c0 -6 -2.33301 -11.667 -7 -17l-153 -178l153 -178c4.66699 -5.33301 7 -11 7 -17c0 -6.66699 -2.33301 -12.334 -7 -17.001s-10.334 -7 -17.001 -7
s-12.667 3 -18 9l-163 192c-4.66699 6 -7 12 -7 18zM232 212.002c0 6 2.33301 12.002 7 18.002l163 192c5.33301 6 11.333 9 18 9s12.334 -2.33301 17.001 -7s7 -10.334 7 -17.001c0 -6 -2.33301 -11.667 -7 -17l-153 -178l153 -178c4.66699 -5.33301 7 -11 7 -17
c0 -6.66699 -2.33301 -12.334 -7 -17.001s-10.334 -7 -17.001 -7s-12.667 3 -18 9l-163 192c-4.66699 6 -7 12 -7 18z" />
    <glyph glyph-name="logicalnot" unicode="&#xac;" horiz-adv-x="563" 
d="M527 279l0.000976562 -256.997c0 -8.66699 -2.83301 -15.834 -8.5 -21.501s-12.834 -8.5 -21.501 -8.5s-15.834 2.83301 -21.501 8.5s-8.5 12.834 -8.5 21.501v233h-404c-7.33301 0 -13.666 2.66699 -18.999 8s-8 11.666 -8 18.999s2.66699 13.666 8 18.999
s11.666 8 18.999 8h434c8.66699 0 15.834 -2.83301 21.501 -8.5s8.5 -12.834 8.5 -21.501z" />
    <glyph glyph-name="registered" unicode="&#xae;" horiz-adv-x="377" 
d="M187 687c99.333 0 149 -50.668 149 -152.001c0 -102 -49.667 -153 -149 -153c-46.667 0 -82.834 12.833 -108.501 38.5s-38.5 63.834 -38.5 114.501s12.833 88.667 38.5 114s61.834 38 108.501 38zM188 405.999c80 0 120 43 120 129c0 44.667 -10 77.167 -30 97.5
s-50 30.5 -90 30.5c-80 0 -120 -42.667 -120 -128c0 -86 40 -129 120 -129zM179 517.999l-22.999 0.00195312v-49c0 -8.66699 -4.33301 -13 -13 -13s-13 4.33301 -13 13v131c0 8.66699 4.33301 13 13 13h55c14.667 0 26.667 -4.5 36 -13.5s14 -20.167 14 -33.5
c0 -12.667 -4.16699 -23.834 -12.5 -33.501s-17.833 -14.5 -28.5 -14.5l33 -41c2 -2.66699 3 -5.33398 3 -8.00098c0 -8.66699 -4 -13 -12 -13c-4.66699 0 -8.33398 2 -11.001 6zM156.001 540.001h42c16 0 24 8.66699 24 26c0 16.667 -8 25 -24 25h-42v-51z" />
    <glyph glyph-name="macron" unicode="&#xaf;" horiz-adv-x="382" 
d="M309 562c0 -6.66699 -2.5 -12.5 -7.5 -17.5s-10.833 -7.5 -17.5 -7.5h-186c-6.66699 0 -12.5 2.5 -17.5 7.5s-7.5 10.833 -7.5 17.5s2.5 12.5 7.5 17.5s10.833 7.5 17.5 7.5h186c6.66699 0 12.5 -2.5 17.5 -7.5s7.5 -10.833 7.5 -17.5z" />
    <glyph glyph-name="degree" unicode="&#xb0;" horiz-adv-x="358" 
d="M315 550c0 -37.333 -13.333 -69.333 -40 -96s-59 -40 -97 -40c-37.333 0 -69.333 13.333 -96 40s-40 58.667 -40 96s13.333 69.5 40 96.5s58.667 40.5 96 40.5c38 0 70.333 -13.5 97 -40.5s40 -59.167 40 -96.5zM277 550c0 27.333 -9.5 50.666 -28.5 69.999
s-42.5 29 -70.5 29c-27.333 0 -50.5 -9.66699 -69.5 -29s-28.5 -42.666 -28.5 -69.999s9.5 -50.5 28.5 -69.5s42.167 -28.5 69.5 -28.5c28 0 51.5 9.5 70.5 28.5s28.5 42.167 28.5 69.5z" />
    <glyph glyph-name="plusminus" unicode="&#xb1;" horiz-adv-x="454" 
d="M454 307c0 -7.33301 -2.66699 -13.666 -8 -18.999s-11.666 -8 -18.999 -8h-171v-171c0 -8 -2.83301 -14.833 -8.5 -20.5s-12.5 -8.5 -20.5 -8.5s-14.833 2.83301 -20.5 8.5s-8.5 12.5 -8.5 20.5v171h-171c-7.33301 0 -13.666 2.66699 -18.999 8s-8 11.666 -8 18.999
s2.66699 13.666 8 18.999s11.666 8 18.999 8h171v170c0 8 2.83301 14.833 8.5 20.5s12.5 8.5 20.5 8.5s14.833 -2.83301 20.5 -8.5s8.5 -12.5 8.5 -20.5v-170h171c7.33301 0 13.666 -2.66699 18.999 -8s8 -11.666 8 -18.999zM454 27c0 -7.33301 -2.66699 -13.666 -8 -18.999
s-11.666 -8 -18.999 -8h-400c-7.33301 0 -13.666 2.66699 -18.999 8s-8 11.666 -8 18.999s2.66699 13.666 8 18.999s11.666 8 18.999 8h400c7.33301 0 13.666 -2.66699 18.999 -8s8 -11.666 8 -18.999z" />
    <glyph glyph-name="twosuperior" unicode="&#xb2;" horiz-adv-x="266" 
d="M35 677c14.667 35.333 47.0029 53.001 97.0029 53.001c33.333 0 59.666 -7.83301 78.999 -23.5s29 -37.5 29 -65.5c0 -21.333 -8.33301 -41 -25 -59s-35.167 -31.833 -55.5 -41.5s-38.833 -20.5 -55.5 -32.5s-25 -23.667 -25 -35h135
c6.66699 0 12.334 -2.33301 17.001 -7s7 -10.334 7 -17.001s-2.33301 -12.334 -7 -17.001s-10.334 -7 -17.001 -7h-167c-6.66699 0 -12.334 2.33301 -17.001 7s-7 10.334 -7 17.001c0 26 8.66699 48.833 26 68.5s36.166 34.167 56.499 43.5s39.166 20.833 56.499 34.5
s26 28.834 26 45.501c0 12 -4.83301 22 -14.5 30s-23.5 12 -41.5 12c-24.667 0 -43.667 -9.66699 -57 -29c-5.33301 -6.66699 -11.666 -10 -18.999 -10c-6.66699 0 -12.167 2.16699 -16.5 6.5s-6.5 9.83301 -6.5 16.5c0 3.33301 0.666992 6.66602 2 9.99902z" />
    <glyph glyph-name="threesuperior" unicode="&#xb3;" horiz-adv-x="259" 
d="M212 681l-67.998 -70.001c30.667 0 53.334 -9 68.001 -27s22 -39.667 22 -65c0 -30.667 -9.66699 -55 -29 -73s-48.333 -27 -87 -27c-46.667 0 -80.334 19.333 -101.001 58c-2.66699 5.33301 -4 10 -4 14c0 6.66699 2.16699 12.167 6.5 16.5s9.83301 6.5 16.5 6.5
c8.66699 0 15.667 -4.33301 21 -13c13.333 -22.667 33.666 -34 60.999 -34c42 0 63 17.333 63 52c0 32 -20 48 -60 48h-22c-6.66699 0 -12.334 2.33301 -17.001 7s-7 10.334 -7 17.001c0 6 2 11.333 6 16l62 67h-93c-6.66699 0 -12.5 2.33301 -17.5 7s-7.5 10.667 -7.5 18
s2.5 13.333 7.5 18s10.833 7 17.5 7h144c6.66699 0 12.5 -2.33301 17.5 -7s7.5 -10.667 7.5 -18c0 -8 -2.33301 -14 -7 -18z" />
    <glyph glyph-name="acute" unicode="&#xb4;" horiz-adv-x="370" 
d="M121 520c-10.667 8.66699 -11.668 18.667 -3.00098 30l89 108c10.667 13.333 23.334 13.333 38.001 0c14 -13.333 15 -26 3 -38l-97 -98c-10 -10 -20 -10.667 -30 -2z" />
    <glyph glyph-name="mu" unicode="&#xb5;" horiz-adv-x="482" 
d="M119 430l0.00195312 -261c0 -37.333 8.66699 -66.833 26 -88.5s49.333 -32.5 96 -32.5s78.667 10.833 96 32.5s26 51.167 26 88.5v261c0 8.66699 3.16699 16.167 9.5 22.5s14.166 9.5 23.499 9.5c8.66699 0 16 -3.16699 22 -9.5s9 -13.833 9 -22.5v-261
c0 -55.333 -13.333 -99.5 -40 -132.5s-75.334 -49.5 -146.001 -49.5c-52 0 -92.667 15.333 -122 46v-206c0 -8.66699 -3.16699 -16.167 -9.5 -22.5s-13.833 -9.5 -22.5 -9.5s-16.167 3.16699 -22.5 9.5s-9.5 13.833 -9.5 22.5v603c0 9.33301 3.16699 17 9.5 23
s13.833 9 22.5 9s16.167 -3.16699 22.5 -9.5s9.5 -13.833 9.5 -22.5z" />
    <glyph glyph-name="paragraph" unicode="&#xb6;" horiz-adv-x="513" 
d="M465 643c0 -8.66699 -2.83105 -15.833 -8.49805 -21.5s-12.834 -8.5 -21.501 -8.5h-27v-314c0 -110 -23.833 -192.833 -71.5 -248.5s-117.5 -83.5 -209.5 -83.5c-30.667 0 -52.334 3 -65.001 9c-13.333 5.33301 -20 15 -20 29c0 8.66699 3 16 9 22s13.333 9 22 9
c3.33301 0 7 -0.666992 11 -2c16 -4.66699 30.333 -7 43 -7c37.333 0 65.166 15.167 83.499 45.5s27.5 71.5 27.5 123.5v152h-33c-44.667 0 -82.667 15.833 -114 47.5s-47 70.167 -47 115.5c0 44.667 15.667 82.834 47 114.501s69.333 47.5 114 47.5h230
c8.66699 0 15.834 -2.83301 21.501 -8.5s8.5 -12.834 8.5 -21.501zM344.002 613.001l-42 -0.000976562v-402c0 -71.333 -21.667 -128.666 -65 -171.999c38.667 20.667 66.167 52 82.5 94s24.5 97.333 24.5 166v314z" />
    <glyph glyph-name="periodcentered" unicode="&#xb7;" horiz-adv-x="164" 
d="M81 253c-31.333 0 -47 15.667 -47 47c0 32 15.667 48 47 48s47 -16 47 -48c0 -31.333 -15.667 -47 -47 -47z" />
    <glyph glyph-name="cedilla" unicode="&#xb8;" horiz-adv-x="315" 
d="M244 -139c0 -56.667 -32.335 -85 -97.002 -85c-25.333 0 -46.666 6 -63.999 18c-5.33301 4 -8 9 -8 15c0 5.33301 1.83301 9.83301 5.5 13.5s7.83398 5.5 12.501 5.5c4 0 8 -1 12 -3c13.333 -6.66699 27.333 -10 42 -10c18.667 0 32.167 3.16699 40.5 9.5
s12.5 18.5 12.5 36.5c0 30.667 -14.667 46 -44 46c-6 0 -13.5 -0.666992 -22.5 -2s-15.167 -2 -18.5 -2c-12.667 0 -18.667 7.33301 -18 22l3 75h35l-5 -59c12 1.33301 21 2 27 2c58 0 87 -27.333 87 -82z" />
    <glyph glyph-name="onesuperior" unicode="&#xb9;" horiz-adv-x="196" 
d="M99 656l-30 -21c-6 -4.66699 -12 -7 -18 -7c-6.66699 0 -12.5 2.5 -17.5 7.5s-7.5 10.833 -7.5 17.5c0 8.66699 4 15.667 12 21l72 48c4.66699 3.33301 9.66699 5 15 5c7.33301 0 13.5 -2.5 18.5 -7.5s7.5 -11.167 7.5 -18.5v-253c0 -6.66699 -2.5 -12.667 -7.5 -18
s-11.167 -8 -18.5 -8s-13.5 2.66699 -18.5 8s-7.5 11.333 -7.5 18v208z" />
    <glyph glyph-name="ordmasculine" unicode="&#xba;" horiz-adv-x="348" 
d="M174 400c65.333 0 98 41.333 98 124s-32.667 124 -98 124s-98 -41.333 -98 -124s32.667 -124 98 -124zM329 288c0 -5.33301 -1.83301 -9.83301 -5.5 -13.5s-8.16699 -5.5 -13.5 -5.5h-272c-5.33301 0 -9.83301 1.83301 -13.5 5.5s-5.5 8.16699 -5.5 13.5
s1.83301 9.83301 5.5 13.5s8.16699 5.5 13.5 5.5h272c5.33301 0 9.83301 -1.83301 13.5 -5.5s5.5 -8.16699 5.5 -13.5zM174 687c95.333 0 143 -54.333 143 -163s-47.667 -163 -143 -163s-143 54.333 -143 163s47.667 163 143 163z" />
    <glyph glyph-name="guillemotright" unicode="&#xbb;" horiz-adv-x="522" 
d="M444 212c0 -6 -2.33301 -12.002 -7 -18.002l-163 -192c-5.33301 -6 -11.333 -9 -18 -9s-12.334 2.33301 -17.001 7s-7 10.334 -7 17.001c0 6 2.33301 11.667 7 17l153 178l-153 178c-4.66699 5.33301 -7 11 -7 17c0 6.66699 2.33301 12.334 7 17.001s10.334 7 17.001 7
s12.667 -3 18 -9l163 -192c4.66699 -6 7 -12 7 -18zM290 211.998c0 -6 -2.33301 -12.002 -7 -18.002l-163 -192c-5.33301 -6 -11.333 -9 -18 -9s-12.334 2.33301 -17.001 7s-7 10.334 -7 17.001c0 6 2.33301 11.667 7 17l153 178l-153 178c-4.66699 5.33301 -7 11 -7 17
c0 6.66699 2.33301 12.334 7 17.001s10.334 7 17.001 7s12.667 -3 18 -9l163 -192c4.66699 -6 7 -12 7 -18z" />
    <glyph glyph-name="onequarter" unicode="&#xbc;" horiz-adv-x="492" 
d="M101 613l-30 -21c-6 -4.66699 -12 -7 -18 -7c-6.66699 0 -12.5 2.5 -17.5 7.5s-7.5 10.833 -7.5 17.5c0 8.66699 4 15.667 12 21l72 48c4.66699 3.33301 9.66699 5 15 5c7.33301 0 13.5 -2.66699 18.5 -8s7.5 -11.333 7.5 -18v-253c0 -7.33301 -2.5 -13.5 -7.5 -18.5
s-11.167 -7.5 -18.5 -7.5s-13.5 2.5 -18.5 7.5s-7.5 11.167 -7.5 18.5v208zM424 107l16.001 0.000976562c6.66699 0 12.334 -2.33301 17.001 -7s7 -10.334 7 -17.001s-2.33301 -12.334 -7 -17.001s-10.334 -7 -17.001 -7h-16v-41c0 -6.66699 -2.66699 -12.667 -8 -18
s-11.333 -8 -18 -8s-12.667 2.66699 -18 8s-8 11.333 -8 18v41h-111c-6.66699 0 -12.334 2.33301 -17.001 7s-7 10.334 -7 17.001c0 6 2 11.333 6 16l134 187c6 7.33301 13 11 21 11c6.66699 0 12.667 -2.5 18 -7.5s8 -11.167 8 -18.5v-164zM305.001 107.001h67v96z
M89.001 29.001l246 635.999c3.33301 10.667 11.333 16 24 16c7.33301 0 13.666 -2.66699 18.999 -8s8 -11.666 8 -18.999c0 -5.33301 -0.666992 -8.66602 -2 -9.99902l-245 -634c-2.66699 -12 -11 -18 -25 -18c-7.33301 0 -13.666 2.66699 -18.999 8s-8 11.666 -8 18.999
c0 4 0.666992 7.33301 2 10z" />
    <glyph glyph-name="onehalf" unicode="&#xbd;" horiz-adv-x="527" 
d="M101 613l-30 -21c-6 -4.66699 -12 -7 -18 -7c-6.66699 0 -12.5 2.5 -17.5 7.5s-7.5 10.833 -7.5 17.5c0 8.66699 4 15.667 12 21l72 48c4.66699 3.33301 9.66699 5 15 5c7.33301 0 13.5 -2.66699 18.5 -8s7.5 -11.333 7.5 -18v-253c0 -7.33301 -2.5 -13.5 -7.5 -18.5
s-11.167 -7.5 -18.5 -7.5s-13.5 2.5 -18.5 7.5s-7.5 11.167 -7.5 18.5v208zM296 252c14.667 35.333 47.0029 53.001 97.0029 53.001c33.333 0 59.666 -7.83301 78.999 -23.5s29 -37.5 29 -65.5c0 -21.333 -8.33301 -41 -25 -59s-35.167 -31.833 -55.5 -41.5
s-38.833 -20.5 -55.5 -32.5s-25 -23.667 -25 -35h135c6.66699 0 12.334 -2.33301 17.001 -7s7 -10.334 7 -17.001s-2.33301 -12.334 -7 -17.001s-10.334 -7 -17.001 -7h-167c-6.66699 0 -12.334 2.33301 -17.001 7s-7 10.334 -7 17.001c0 26 8.66699 48.833 26 68.5
s36.166 34.167 56.499 43.5s39.166 20.833 56.499 34.5s26 28.834 26 45.501c0 12 -4.83301 22 -14.5 30s-23.5 12 -41.5 12c-24.667 0 -43.667 -9.66699 -57 -29c-5.33301 -6.66699 -11.666 -10 -18.999 -10c-6.66699 0 -12.167 2.16699 -16.5 6.5s-6.5 9.83301 -6.5 16.5
c0 3.33301 0.666992 6.66602 2 9.99902zM89.0029 29.001l246 635.999c4.66699 10.667 12.667 16 24 16c7.33301 0 13.666 -2.66699 18.999 -8s8 -11.666 8 -18.999c0 -5.33301 -0.666992 -8.66602 -2 -9.99902l-245 -634c-4.66699 -12 -13 -18 -25 -18
c-7.33301 0 -13.666 2.66699 -18.999 8s-8 11.666 -8 18.999c0 4 0.666992 7.33301 2 10z" />
    <glyph glyph-name="threequarters" unicode="&#xbe;" horiz-adv-x="579" 
d="M480 107l16.001 0.000976562c6.66699 0 12.334 -2.33301 17.001 -7s7 -10.334 7 -17.001s-2.33301 -12.334 -7 -17.001s-10.334 -7 -17.001 -7h-16v-41c0 -6.66699 -2.66699 -12.667 -8 -18s-11.333 -8 -18 -8s-12.667 2.66699 -18 8s-8 11.333 -8 18v41h-111
c-6.66699 0 -12.334 2.33301 -17.001 7s-7 10.334 -7 17.001c0 6 2 11.333 6 16l134 187c6 7.33301 13 11 21 11c6.66699 0 12.667 -2.5 18 -7.5s8 -11.167 8 -18.5v-164zM361.001 107.001h67v96zM222.001 638.001l-67.998 -70c30.667 0 53.334 -9 68.001 -27
s22 -39.667 22 -65c0 -30.667 -9.66699 -55 -29 -73s-48.333 -27 -87 -27c-46.667 0 -80.334 19.333 -101.001 58c-2.66699 5.33301 -4 10 -4 14c0 6.66699 2.16699 12.167 6.5 16.5s9.83301 6.5 16.5 6.5c8.66699 0 15.667 -4.33301 21 -13
c13.333 -22.667 33.666 -34 60.999 -34c42 0 63 17.333 63 52c0 32 -20 48 -60 48h-22c-6.66699 0 -12.334 2.33301 -17.001 7s-7 10.334 -7 17.001c0 5.33301 2 10.666 6 15.999l62 67h-93c-6.66699 0 -12.5 2.5 -17.5 7.5s-7.5 10.833 -7.5 17.5s2.5 12.5 7.5 17.5
s10.833 7.5 17.5 7.5h144c6.66699 0 12.5 -2.5 17.5 -7.5s7.5 -10.833 7.5 -17.5c0 -8 -2.33301 -14 -7 -18zM145.003 29.001l246 635.999c3.33301 10.667 11.333 16 24 16c7.33301 0 13.666 -2.66699 18.999 -8s8 -11.666 8 -18.999
c0 -5.33301 -0.666992 -8.66602 -2 -9.99902l-245 -634c-2.66699 -12 -11 -18 -25 -18c-7.33301 0 -13.666 2.66699 -18.999 8s-8 11.666 -8 18.999c0 4 0.666992 7.33301 2 10z" />
    <glyph glyph-name="questiondown" unicode="&#xbf;" horiz-adv-x="461" 
d="M276 302c21.333 -21.333 32.002 -49.6699 32.002 -85.0029c0 -24 -7.16699 -45.333 -21.5 -64s-31.666 -34.5 -51.999 -47.5l-61.5 -39.5c-20.667 -13.333 -38.167 -30.5 -52.5 -51.5s-21.5 -45.167 -21.5 -72.5c0 -36 11.667 -63.333 35 -82s56.333 -28 99 -28
c40 0 71.333 10 94 30s34 50 34 90c0 9.33301 3.16699 17.166 9.5 23.499s14.166 9.5 23.499 9.5s17.166 -3.16699 23.499 -9.5s9.5 -14.166 9.5 -23.499c0 -56 -17 -99.833 -51 -131.5s-81.667 -47.5 -143 -47.5c-62 0 -110.5 14.667 -145.5 44s-52.5 71 -52.5 125
c0 32.667 7 61.834 21 87.501s31.167 46.334 51.5 62.001s40.666 30 60.999 43s37.5 26.333 51.5 40s21 27.834 21 42.501c0 12.667 -4.66699 26 -14 40c-5.33301 8 -8 15.333 -8 22c0 10 3.5 18 10.5 24s14.5 9 22.5 9c9.33301 0 17.333 -3.33301 24 -10zM256.002 467.996
c31.333 0 47 -15.667 47 -47c0 -32 -15.667 -48 -47 -48s-47 16 -47 48c0 31.333 15.667 47 47 47z" />
    <glyph glyph-name="Agrave" unicode="&#xc0;" horiz-adv-x="613" 
d="M425 261l-119 306l-118 -306h237zM446 199h-279.001l-73 -183c-6 -16 -17 -24 -33 -24c-9.33301 0 -17.333 3.33301 -24 10s-10 14.667 -10 24c0 6 1 11 3 15l244 617c6.66699 15.333 17.334 23 32.001 23c15.333 0 26.333 -7.66699 33 -23l244 -617
c2 -5.33301 3 -10.333 3 -15c0 -9.33301 -3.33301 -17.333 -10 -24s-15 -10 -25 -10c-16 0 -27 7.66699 -33 23zM357.999 724c-10 -8.66699 -20.001 -8 -30.001 2l-97 98c-12 12 -11 24.667 3 38c14.667 13.333 27.334 13.333 38.001 0l89 -108
c8.66699 -11.333 7.66699 -21.333 -3 -30z" />
    <glyph glyph-name="Aacute" unicode="&#xc1;" horiz-adv-x="613" 
d="M425 261l-119 306l-118 -306h237zM446 199h-279.001l-73 -183c-6 -16 -17 -24 -33 -24c-9.33301 0 -17.333 3.33301 -24 10s-10 14.667 -10 24c0 6 1 11 3 15l244 617c6.66699 15.333 17.334 23 32.001 23c15.333 0 26.333 -7.66699 33 -23l244 -617
c2 -5.33301 3 -10.333 3 -15c0 -9.33301 -3.33301 -17.333 -10 -24s-15 -10 -25 -10c-16 0 -27 7.66699 -33 23zM253.999 724c-10.667 8.66699 -11.668 18.667 -3.00098 30l89 108c10.667 13.333 23.334 13.333 38.001 0c14 -13.333 15 -26 3 -38l-97 -98
c-10 -10 -20 -10.667 -30 -2z" />
    <glyph glyph-name="Acircumflex" unicode="&#xc2;" horiz-adv-x="613" 
d="M425 261l-119 306l-118 -306h237zM446 199h-279.001l-73 -183c-6 -16 -17 -24 -33 -24c-9.33301 0 -17.333 3.33301 -24 10s-10 14.667 -10 24c0 6 1 11 3 15l244 617c6.66699 15.333 17.334 23 32.001 23c15.333 0 26.333 -7.66699 33 -23l244 -617
c2 -5.33301 3 -10.333 3 -15c0 -9.33301 -3.33301 -17.333 -10 -24s-15 -10 -25 -10c-16 0 -27 7.66699 -33 23zM386.999 725l-80.9961 68.001l-81 -68c-4 -4 -9.33301 -6 -16 -6s-12.334 2.33301 -17.001 7s-7 10.334 -7 17.001c0 7.33301 3 13.666 9 18.999l96 79
c5.33301 4 10.666 6 15.999 6s10.666 -2 15.999 -6l96 -79c6 -4.66699 9 -11 9 -19c0 -6.66699 -2.33301 -12.334 -7 -17.001s-10.334 -7 -17.001 -7s-12 2 -16 6z" />
    <glyph glyph-name="Atilde" unicode="&#xc3;" horiz-adv-x="613" 
d="M425 261l-119 306l-118 -306h237zM446 199h-279.001l-73 -183c-6 -16 -17 -24 -33 -24c-9.33301 0 -17.333 3.33301 -24 10s-10 14.667 -10 24c0 6 1 11 3 15l244 617c6.66699 15.333 17.334 23 32.001 23c15.333 0 26.333 -7.66699 33 -23l244 -617
c2 -5.33301 3 -10.333 3 -15c0 -9.33301 -3.33301 -17.333 -10 -24s-15 -10 -25 -10c-16 0 -27 7.66699 -33 23zM247.999 819c17.333 0 38 -6.5 62 -19.5s42.667 -19.5 56 -19.5c16.667 0 32 9.33301 46 28c5.33301 7.33301 12 11 20 11
c6.66699 0 12.334 -2.33301 17.001 -7s7 -10.334 7 -17.001c0 -4 -1 -8 -3 -12c-17.333 -34.667 -46.333 -52 -87 -52c-17.333 0 -38 6.5 -62 19.5s-42.667 19.5 -56 19.5c-16.667 0 -32 -9.33301 -46 -28c-5.33301 -7.33301 -12 -11 -20 -11
c-6.66699 0 -12.334 2.33301 -17.001 7s-7 10.334 -7 17.001c0 4 1 8 3 12c17.333 34.667 46.333 52 87 52z" />
    <glyph glyph-name="Adieresis" unicode="&#xc4;" horiz-adv-x="613" 
d="M425 261l-119 306l-118 -306h237zM446 199h-279.001l-73 -183c-6 -16 -17 -24 -33 -24c-9.33301 0 -17.333 3.33301 -24 10s-10 14.667 -10 24c0 6 1 11 3 15l244 617c6.66699 15.333 17.334 23 32.001 23c15.333 0 26.333 -7.66699 33 -23l244 -617
c2 -5.33301 3 -10.333 3 -15c0 -9.33301 -3.33301 -17.333 -10 -24s-15 -10 -25 -10c-16 0 -27 7.66699 -33 23zM227.999 741c-24 0 -36 12.333 -36 37c0 25.333 12 38 36 38s36 -12.667 36 -38c0 -24.667 -12 -37 -36 -37zM384.999 741c-24 0 -36 12.333 -36 37
c0 25.333 12 38 36 38s36 -12.667 36 -38c0 -24.667 -12 -37 -36 -37z" />
    <glyph glyph-name="Aring" unicode="&#xc5;" horiz-adv-x="613" 
d="M425 261l-119 306l-118 -306h237zM446 199h-279.001l-73 -183c-6 -16 -17 -24 -33 -24c-9.33301 0 -17.333 3.33301 -24 10s-10 14.667 -10 24c0 6 1 11 3 15l244 617c6.66699 15.333 17.334 23 32.001 23c15.333 0 26.333 -7.66699 33 -23l244 -617
c2 -5.33301 3 -10.333 3 -15c0 -9.33301 -3.33301 -17.333 -10 -24s-15 -10 -25 -10c-16 0 -27 7.66699 -33 23zM305.999 703c-69.333 0 -104 32.667 -104 98s34.667 98 104 98s104 -32.667 104 -98s-34.667 -98 -104 -98zM305.999 861
c-22.667 0 -38.667 -4.83301 -48 -14.5s-14 -24.834 -14 -45.501c0 -20 4.83301 -35 14.5 -45s25.5 -15 47.5 -15s37.833 5 47.5 15s14.5 25 14.5 45c0 20.667 -4.66699 35.834 -14 45.501s-25.333 14.5 -48 14.5z" />
    <glyph glyph-name="AE" unicode="&#xc6;" horiz-adv-x="841" 
d="M769 0h-332c-9.33301 -0 -17.333 3.33301 -24 10s-10 14.667 -10 24v165h-211l-119 -191c-6 -10.667 -15.667 -16 -29 -16c-9.33301 0 -17.5 3.5 -24.5 10.5s-10.5 15.167 -10.5 24.5c0 6 2.33301 12.667 7 20l392 610c7.33301 10.667 17 16 29 16h321
c8.66699 0 16 -3 22 -9s9 -13.333 9 -22s-3 -16 -9 -22s-13.333 -9 -22 -9h-287v-241h220c8.66699 0 16 -3 22 -9s9 -13.333 9 -22s-3 -16 -9 -22s-13.333 -9 -22 -9h-220v-246h298c8.66699 0 16 -3 22 -9s9 -13.333 9 -22s-3 -16 -9 -22s-13.333 -9 -22 -9zM228 261h175
v280z" />
    <glyph glyph-name="Ccedilla" unicode="&#xc7;" horiz-adv-x="631" 
d="M441 -139c0 -56.667 -32.332 -85 -96.999 -85c-25.333 0 -46.666 6 -63.999 18c-5.33301 4 -8 9 -8 15c0 5.33301 1.83301 9.83301 5.5 13.5s7.83398 5.5 12.501 5.5c4 0 8 -1 12 -3c13.333 -6.66699 27.333 -10 42 -10c18.667 0 32.167 3.16699 40.5 9.5
s12.5 18.5 12.5 36.5c0 30.667 -14.667 46 -44 46c-6 0 -13.5 -0.666992 -22.5 -2s-15.167 -2 -18.5 -2c-12.667 0 -18.667 7.33301 -18 22l2 65c-168 20 -252 135.333 -252 346c0 116 27.167 203.5 81.5 262.5s131.166 88.5 230.499 88.5
c47.333 0 90.666 -9.5 129.999 -28.5s71 -44.833 95 -77.5c4.66699 -6.66699 7 -13.667 7 -21c0 -9.33301 -3 -17 -9 -23s-13.667 -9 -23 -9c-10.667 0 -19.334 4.33301 -26.001 13c-18 24.667 -42.5 44.834 -73.5 60.501s-64.5 23.5 -100.5 23.5
c-78 0 -137.833 -24 -179.5 -72s-62.5 -120.333 -62.5 -217c0 -100.667 20.333 -173.834 61 -219.501s101 -68.5 181 -68.5c34.667 0 67.667 7 99 21s56.333 34.333 75 61c6 8.66699 14.667 13 26 13c9.33301 0 17 -3.16699 23 -9.5s9 -13.833 9 -22.5
c0 -6.66699 -2 -13 -6 -19c-22 -32 -53.667 -57.667 -95 -77s-85 -29 -131 -29l-25 1l-4 -46c12 1.33301 21 2 27 2c58 0 87 -27.333 87 -82z" />
    <glyph glyph-name="Egrave" unicode="&#xc8;" 
d="M446 0h-332c-9.33301 -0 -17.333 3.33301 -24 10s-10 14.667 -10 24v605c0 9.33301 3.33301 17.333 10 24s14.667 10 24 10h321c8.66699 0 16 -3 22 -9s9 -13.333 9 -22s-3 -16 -9 -22s-13.333 -9 -22 -9h-287v-241h220c8.66699 0 16 -3 22 -9s9 -13.333 9 -22
s-3 -16 -9 -22s-13.333 -9 -22 -9h-220v-246h298c8.66699 0 16 -3 22 -9s9 -13.333 9 -22s-3 -16 -9 -22s-13.333 -9 -22 -9zM337 724c-10 -8.66699 -20.001 -8 -30.001 2l-97 98c-12 12 -11 24.667 3 38c14.667 13.333 27.334 13.333 38.001 0l89 -108
c8.66699 -11.333 7.66699 -21.333 -3 -30z" />
    <glyph glyph-name="Eacute" unicode="&#xc9;" 
d="M446 0h-332c-9.33301 -0 -17.333 3.33301 -24 10s-10 14.667 -10 24v605c0 9.33301 3.33301 17.333 10 24s14.667 10 24 10h321c8.66699 0 16 -3 22 -9s9 -13.333 9 -22s-3 -16 -9 -22s-13.333 -9 -22 -9h-287v-241h220c8.66699 0 16 -3 22 -9s9 -13.333 9 -22
s-3 -16 -9 -22s-13.333 -9 -22 -9h-220v-246h298c8.66699 0 16 -3 22 -9s9 -13.333 9 -22s-3 -16 -9 -22s-13.333 -9 -22 -9zM227 724c-10.667 8.66699 -11.668 18.667 -3.00098 30l89 108c10.667 13.333 23.334 13.333 38.001 0c14 -13.333 15 -26 3 -38l-97 -98
c-10 -10 -20 -10.667 -30 -2z" />
    <glyph glyph-name="Ecircumflex" unicode="&#xca;" 
d="M446 0h-332c-9.33301 -0 -17.333 3.33301 -24 10s-10 14.667 -10 24v605c0 9.33301 3.33301 17.333 10 24s14.667 10 24 10h321c8.66699 0 16 -3 22 -9s9 -13.333 9 -22s-3 -16 -9 -22s-13.333 -9 -22 -9h-287v-241h220c8.66699 0 16 -3 22 -9s9 -13.333 9 -22
s-3 -16 -9 -22s-13.333 -9 -22 -9h-220v-246h298c8.66699 0 16 -3 22 -9s9 -13.333 9 -22s-3 -16 -9 -22s-13.333 -9 -22 -9zM367 725l-80.9961 68.001l-81 -68c-4 -4 -9.33301 -6 -16 -6s-12.334 2.33301 -17.001 7s-7 10.334 -7 17.001c0 7.33301 3 13.666 9 18.999l96 79
c5.33301 4 10.666 6 15.999 6s10.666 -2 15.999 -6l96 -79c6 -4.66699 9 -11 9 -19c0 -6.66699 -2.33301 -12.334 -7 -17.001s-10.334 -7 -17.001 -7s-12 2 -16 6z" />
    <glyph glyph-name="Edieresis" unicode="&#xcb;" 
d="M446 0h-332c-9.33301 -0 -17.333 3.33301 -24 10s-10 14.667 -10 24v605c0 9.33301 3.33301 17.333 10 24s14.667 10 24 10h321c8.66699 0 16 -3 22 -9s9 -13.333 9 -22s-3 -16 -9 -22s-13.333 -9 -22 -9h-287v-241h220c8.66699 0 16 -3 22 -9s9 -13.333 9 -22
s-3 -16 -9 -22s-13.333 -9 -22 -9h-220v-246h298c8.66699 0 16 -3 22 -9s9 -13.333 9 -22s-3 -16 -9 -22s-13.333 -9 -22 -9zM205 741c-24 0 -36 12.333 -36 37c0 25.333 12 38 36 38s36 -12.667 36 -38c0 -24.667 -12 -37 -36 -37zM362 741c-24 0 -36 12.333 -36 37
c0 25.333 12 38 36 38s36 -12.667 36 -38c0 -24.667 -12 -37 -36 -37z" />
    <glyph glyph-name="Igrave" unicode="&#xcc;" horiz-adv-x="228" 
d="M148 647v-621c0 -9.33301 -3.33301 -17.333 -10 -24s-14.667 -10 -24 -10s-17.333 3.33301 -24 10s-10 14.667 -10 24v621c0 9.33301 3.33301 17.333 10 24s14.667 10 24 10s17.333 -3.33301 24 -10s10 -14.667 10 -24zM166 724c-10 -8.66699 -20.001 -8 -30.001 2
l-97 98c-12 12 -11 24.667 3 38c14.667 13.333 27.334 13.333 38.001 0l89 -108c8.66699 -11.333 7.66699 -21.333 -3 -30z" />
    <glyph glyph-name="Iacute" unicode="&#xcd;" horiz-adv-x="228" 
d="M148 647v-621c0 -9.33301 -3.33301 -17.333 -10 -24s-14.667 -10 -24 -10s-17.333 3.33301 -24 10s-10 14.667 -10 24v621c0 9.33301 3.33301 17.333 10 24s14.667 10 24 10s17.333 -3.33301 24 -10s10 -14.667 10 -24zM62 724
c-10.667 8.66699 -11.668 18.667 -3.00098 30l89 108c10.667 13.333 23.334 13.333 38.001 0c14 -13.333 15 -26 3 -38l-97 -98c-10 -10 -20 -10.667 -30 -2z" />
    <glyph glyph-name="Icircumflex" unicode="&#xce;" horiz-adv-x="228" 
d="M148 647v-621c0 -9.33301 -3.33301 -17.333 -10 -24s-14.667 -10 -24 -10s-17.333 3.33301 -24 10s-10 14.667 -10 24v621c0 9.33301 3.33301 17.333 10 24s14.667 10 24 10s17.333 -3.33301 24 -10s10 -14.667 10 -24zM196 725l-80.9961 68.001l-81 -68
c-4 -4 -9.33301 -6 -16 -6s-12.334 2.33301 -17.001 7s-7 10.334 -7 17.001c0 7.33301 3 13.666 9 18.999l96 79c5.33301 4 10.666 6 15.999 6s10.666 -2 15.999 -6l96 -79c6 -4.66699 9 -11 9 -19c0 -6.66699 -2.33301 -12.334 -7 -17.001s-10.334 -7 -17.001 -7
s-12 2 -16 6z" />
    <glyph glyph-name="Idieresis" unicode="&#xcf;" horiz-adv-x="228" 
d="M148 647v-621c0 -9.33301 -3.33301 -17.333 -10 -24s-14.667 -10 -24 -10s-17.333 3.33301 -24 10s-10 14.667 -10 24v621c0 9.33301 3.33301 17.333 10 24s14.667 10 24 10s17.333 -3.33301 24 -10s10 -14.667 10 -24zM36 741c-24 0 -36 12.333 -36 37
c0 25.333 12 38 36 38s36 -12.667 36 -38c0 -24.667 -12 -37 -36 -37zM193 741c-24 0 -36 12.333 -36 37c0 25.333 12 38 36 38s36 -12.667 36 -38c0 -24.667 -12 -37 -36 -37z" />
    <glyph glyph-name="Eth" unicode="&#xd0;" horiz-adv-x="609" 
d="M114 673l141 0.000976562c100.667 0 177.5 -26.5 230.5 -79.5s79.5 -138.833 79.5 -257.5s-26.5 -204.334 -79.5 -257.001s-129.833 -79 -230.5 -79h-141c-9.33301 -0 -17.333 3.33301 -24 10s-10 14.667 -10 24v283h-31c-8.66699 0 -16 3 -22 9s-9 13.333 -9 22
s3 16 9 22s13.333 9 22 9h31v260c0 9.33301 3.33301 17.333 10 24s14.667 10 24 10zM373 348.001c0 -8.66699 -3.16699 -16.001 -9.5 -22.001s-13.833 -9 -22.5 -9h-193v-253h107c79.333 0 139.5 20.5 180.5 61.5s61.5 111.167 61.5 210.5
c0 98.667 -20.667 168.834 -62 210.501s-101.333 62.5 -180 62.5h-107v-230h193c8.66699 0 16.167 -3 22.5 -9s9.5 -13.333 9.5 -22z" />
    <glyph glyph-name="Ntilde" unicode="&#xd1;" horiz-adv-x="620" 
d="M517 681c8.66699 0 16.332 -3.16602 22.999 -9.49902s10 -14.166 10 -23.499v-622c0 -9.33301 -3.33301 -17.333 -10 -24s-14.667 -10 -24 -10c-11.333 0 -20.666 4.66699 -27.999 14l-352 531v-512c0 -8.66699 -3.33301 -16.334 -10 -23.001s-14.334 -10 -23.001 -10
s-16.334 3.33301 -23.001 10s-10 14.334 -10 23.001v623c0 9.33301 3.33301 17.166 10 23.499s14.334 9.5 23.001 9.5c11.333 0 20.333 -4.66699 27 -14l354 -532v513c0 9.33301 3.33301 17.166 10 23.499s14.334 9.5 23.001 9.5zM259.998 819.001
c17.333 0 38 -6.5 62 -19.5s42.667 -19.5 56 -19.5c16.667 0 32 9.33301 46 28c5.33301 7.33301 12 11 20 11c6.66699 0 12.334 -2.33301 17.001 -7s7 -10.334 7 -17.001c0 -4 -1 -8 -3 -12c-17.333 -34.667 -46.333 -52 -87 -52c-17.333 0 -38 6.5 -62 19.5
s-42.667 19.5 -56 19.5c-16.667 0 -32 -9.33301 -46 -28c-5.33301 -7.33301 -12 -11 -20 -11c-6.66699 0 -12.334 2.33301 -17.001 7s-7 10.334 -7 17.001c0 4 1 8 3 12c17.333 34.667 46.333 52 87 52z" />
    <glyph glyph-name="Ograve" unicode="&#xd2;" horiz-adv-x="712" 
d="M356 -14c98.667 0 175.33 29.5 229.997 88.5s82 146.167 82 261.5c0 116 -27.167 203.5 -81.5 262.5s-131.166 88.5 -230.499 88.5s-176.166 -29.5 -230.499 -88.5s-81.5 -146.5 -81.5 -262.5c0 -115.333 27.333 -202.5 82 -261.5s131.334 -88.5 230.001 -88.5z
M355.996 625c78 0 137.833 -24 179.5 -72s62.5 -120.333 62.5 -217c0 -96 -20.833 -168 -62.5 -216s-101.5 -72 -179.5 -72s-137.833 24 -179.5 72s-62.5 120 -62.5 216c0 96.667 20.833 169 62.5 217s101.5 72 179.5 72zM419.996 724c-10 -8.66699 -20.001 -8 -30.001 2
l-97 98c-12 12 -11 24.667 3 38c14.667 13.333 27.334 13.333 38.001 0l89 -108c8.66699 -11.333 7.66699 -21.333 -3 -30z" />
    <glyph glyph-name="Oacute" unicode="&#xd3;" horiz-adv-x="712" 
d="M356 -14c98.667 0 175.33 29.5 229.997 88.5s82 146.167 82 261.5c0 116 -27.167 203.5 -81.5 262.5s-131.166 88.5 -230.499 88.5s-176.166 -29.5 -230.499 -88.5s-81.5 -146.5 -81.5 -262.5c0 -115.333 27.333 -202.5 82 -261.5s131.334 -88.5 230.001 -88.5z
M355.996 625c78 0 137.833 -24 179.5 -72s62.5 -120.333 62.5 -217c0 -96 -20.833 -168 -62.5 -216s-101.5 -72 -179.5 -72s-137.833 24 -179.5 72s-62.5 120 -62.5 216c0 96.667 20.833 169 62.5 217s101.5 72 179.5 72zM300.996 724
c-10.667 8.66699 -11.668 18.667 -3.00098 30l89 108c10.667 13.333 23.334 13.333 38.001 0c14 -13.333 15 -26 3 -38l-97 -98c-10 -10 -20 -10.667 -30 -2z" />
    <glyph glyph-name="Ocircumflex" unicode="&#xd4;" horiz-adv-x="712" 
d="M356 -14c98.667 0 175.33 29.5 229.997 88.5s82 146.167 82 261.5c0 116 -27.167 203.5 -81.5 262.5s-131.166 88.5 -230.499 88.5s-176.166 -29.5 -230.499 -88.5s-81.5 -146.5 -81.5 -262.5c0 -115.333 27.333 -202.5 82 -261.5s131.334 -88.5 230.001 -88.5z
M355.996 625c78 0 137.833 -24 179.5 -72s62.5 -120.333 62.5 -217c0 -96 -20.833 -168 -62.5 -216s-101.5 -72 -179.5 -72s-137.833 24 -179.5 72s-62.5 120 -62.5 216c0 96.667 20.833 169 62.5 217s101.5 72 179.5 72zM439.996 725l-80.9961 68.001l-81 -68
c-4 -4 -9.33301 -6 -16 -6s-12.334 2.33301 -17.001 7s-7 10.334 -7 17.001c0 7.33301 3 13.666 9 18.999l96 79c5.33301 4 10.666 6 15.999 6s10.666 -2 15.999 -6l96 -79c6 -4.66699 9 -11 9 -19c0 -6.66699 -2.33301 -12.334 -7 -17.001s-10.334 -7 -17.001 -7
s-12 2 -16 6z" />
    <glyph glyph-name="Otilde" unicode="&#xd5;" horiz-adv-x="712" 
d="M356 -14c98.667 0 175.33 29.5 229.997 88.5s82 146.167 82 261.5c0 116 -27.167 203.5 -81.5 262.5s-131.166 88.5 -230.499 88.5s-176.166 -29.5 -230.499 -88.5s-81.5 -146.5 -81.5 -262.5c0 -115.333 27.333 -202.5 82 -261.5s131.334 -88.5 230.001 -88.5z
M355.996 625c78 0 137.833 -24 179.5 -72s62.5 -120.333 62.5 -217c0 -96 -20.833 -168 -62.5 -216s-101.5 -72 -179.5 -72s-137.833 24 -179.5 72s-62.5 120 -62.5 216c0 96.667 20.833 169 62.5 217s101.5 72 179.5 72zM296.996 819c16.667 0 37.332 -6.5 61.999 -19.5
s43.334 -19.5 56.001 -19.5c16.667 0 32 9.33301 46 28c5.33301 7.33301 12 11 20 11c6.66699 0 12.334 -2.33301 17.001 -7s7 -10.334 7 -17.001c0 -4 -1 -8 -3 -12c-17.333 -34.667 -46.333 -52 -87 -52c-17.333 0 -38 6.5 -62 19.5s-42.667 19.5 -56 19.5
c-16.667 0 -32 -9.33301 -46 -28c-5.33301 -7.33301 -12 -11 -20 -11c-6.66699 0 -12.334 2.33301 -17.001 7s-7 10.334 -7 17.001c0 4 1 8 3 12c17.333 34.667 46.333 52 87 52z" />
    <glyph glyph-name="Odieresis" unicode="&#xd6;" horiz-adv-x="713" 
d="M356 -14c98.667 0 175.33 29.5 229.997 88.5s82 146.167 82 261.5c0 116 -27.167 203.5 -81.5 262.5s-131.166 88.5 -230.499 88.5s-176.166 -29.5 -230.499 -88.5s-81.5 -146.5 -81.5 -262.5c0 -115.333 27.333 -202.5 82 -261.5s131.334 -88.5 230.001 -88.5z
M355.996 625c78 0 137.833 -24 179.5 -72s62.5 -120.333 62.5 -217c0 -96 -20.833 -168 -62.5 -216s-101.5 -72 -179.5 -72s-137.833 24 -179.5 72s-62.5 120 -62.5 216c0 96.667 20.833 169 62.5 217s101.5 72 179.5 72zM277.996 741c-24 0 -36 12.333 -36 37
c0 25.333 12 38 36 38s36 -12.667 36 -38c0 -24.667 -12 -37 -36 -37zM434.996 741c-24 0 -36 12.333 -36 37c0 25.333 12 38 36 38s36 -12.667 36 -38c0 -24.667 -12 -37 -36 -37z" />
    <glyph glyph-name="multiply" unicode="&#xd7;" horiz-adv-x="354" 
d="M177 257l128 125c6.66699 6.66699 13.667 10 21 10s13.833 -2.83301 19.5 -8.5s8.5 -12.167 8.5 -19.5s-2.66699 -13.666 -8 -18.999l-131 -127l131 -127c5.33301 -5.33301 8 -11.666 8 -18.999s-2.83301 -13.833 -8.5 -19.5s-12.167 -8.5 -19.5 -8.5
s-14.333 3.33301 -21 10l-128 125l-128 -125c-6.66699 -6.66699 -13.667 -10 -21 -10s-13.833 2.83301 -19.5 8.5s-8.5 12.167 -8.5 19.5s2.66699 13.666 8 18.999l131 127l-131 127c-5.33301 5.33301 -8 11.666 -8 18.999s2.83301 13.833 8.5 19.5s12.167 8.5 19.5 8.5
s14.333 -3.33301 21 -10z" />
    <glyph glyph-name="Oslash" unicode="&#xd8;" horiz-adv-x="712" 
d="M356 -14c-80 0 -145.331 19.001 -195.998 57.001l-47 -59c-5.33301 -6.66699 -12 -10 -20 -10c-7.33301 0 -13.666 2.66699 -18.999 8s-8 11.666 -8 18.999c0 6 1.66699 11 5 15l50 64c-51.333 59.333 -77 144.666 -77 255.999c0 116 27.167 203.5 81.5 262.5
s131.166 88.5 230.499 88.5c80 0 145.667 -19.667 197 -59l46 58c5.33301 6.66699 12 10 20 10c7.33301 0 13.666 -2.66699 18.999 -8s8 -11.666 8 -18.999c0 -6 -1.66699 -11 -5 -15l-49 -62c50.667 -60 76 -145.333 76 -256c0 -115.333 -27.333 -202.5 -82 -261.5
s-131.334 -88.5 -230.001 -88.5zM356.002 625.001c-78 0 -137.833 -24 -179.5 -72s-62.5 -120.333 -62.5 -217c0 -85.333 17 -152.333 51 -201l347 441c-39.333 32.667 -91.333 49 -156 49zM356.002 48.001c78 0 137.833 23.999 179.5 71.999s62.5 120 62.5 216
c0 84.667 -16.667 151.334 -50 200.001l-347 -440c38 -32 89.667 -48 155 -48z" />
    <glyph glyph-name="Ugrave" unicode="&#xd9;" horiz-adv-x="624" 
d="M315 -14c-156.667 0 -235.002 72.999 -235.002 218.999v442c0 9.33301 3.33301 17.333 10 24s14.667 10 24 10s17.333 -3.33301 24 -10s10 -14.667 10 -24v-442c0 -22 2.33301 -41.5 7 -58.5s12.834 -33.167 24.501 -48.5s28.834 -27.166 51.501 -35.499
s50.667 -12.5 84 -12.5c62.667 0 106 14.167 130 42.5s36 65.833 36 112.5v442c0 9.33301 3.33301 17.333 10 24s14.667 10 24 10s17.333 -3.33301 24 -10s10 -14.667 10 -24v-442c0 -146 -78 -219 -234 -219zM374.998 723.999c-10 -8.66699 -20.001 -8 -30.001 2l-97 98
c-12 12 -11 24.667 3 38c14.667 13.333 27.334 13.333 38.001 0l89 -108c8.66699 -11.333 7.66699 -21.333 -3 -30z" />
    <glyph glyph-name="Uacute" unicode="&#xda;" horiz-adv-x="624" 
d="M315 -14c-156.667 0 -235.002 72.999 -235.002 218.999v442c0 9.33301 3.33301 17.333 10 24s14.667 10 24 10s17.333 -3.33301 24 -10s10 -14.667 10 -24v-442c0 -22 2.33301 -41.5 7 -58.5s12.834 -33.167 24.501 -48.5s28.834 -27.166 51.501 -35.499
s50.667 -12.5 84 -12.5c62.667 0 106 14.167 130 42.5s36 65.833 36 112.5v442c0 9.33301 3.33301 17.333 10 24s14.667 10 24 10s17.333 -3.33301 24 -10s10 -14.667 10 -24v-442c0 -146 -78 -219 -234 -219zM267.998 723.999c-10.667 8.66699 -11.668 18.667 -3.00098 30
l89 108c10.667 13.333 23.334 13.333 38.001 0c14 -13.333 15 -26 3 -38l-97 -98c-10 -10 -20 -10.667 -30 -2z" />
    <glyph glyph-name="Ucircumflex" unicode="&#xdb;" horiz-adv-x="624" 
d="M315 -14c-156.667 0 -235.002 72.999 -235.002 218.999v442c0 9.33301 3.33301 17.333 10 24s14.667 10 24 10s17.333 -3.33301 24 -10s10 -14.667 10 -24v-442c0 -22 2.33301 -41.5 7 -58.5s12.834 -33.167 24.501 -48.5s28.834 -27.166 51.501 -35.499
s50.667 -12.5 84 -12.5c62.667 0 106 14.167 130 42.5s36 65.833 36 112.5v442c0 9.33301 3.33301 17.333 10 24s14.667 10 24 10s17.333 -3.33301 24 -10s10 -14.667 10 -24v-442c0 -146 -78 -219 -234 -219zM395.998 724.999l-80.9961 68.001l-81 -68
c-4 -4 -9.33301 -6 -16 -6s-12.334 2.33301 -17.001 7s-7 10.334 -7 17.001c0 7.33301 3 13.666 9 18.999l96 79c5.33301 4 10.666 6 15.999 6s10.666 -2 15.999 -6l96 -79c6 -4.66699 9 -11 9 -19c0 -6.66699 -2.33301 -12.334 -7 -17.001s-10.334 -7 -17.001 -7
s-12 2 -16 6z" />
    <glyph glyph-name="Udieresis" unicode="&#xdc;" horiz-adv-x="624" 
d="M315 -14c-156.667 0 -235.002 72.999 -235.002 218.999v442c0 9.33301 3.33301 17.333 10 24s14.667 10 24 10s17.333 -3.33301 24 -10s10 -14.667 10 -24v-442c0 -22 2.33301 -41.5 7 -58.5s12.834 -33.167 24.501 -48.5s28.834 -27.166 51.501 -35.499
s50.667 -12.5 84 -12.5c62.667 0 106 14.167 130 42.5s36 65.833 36 112.5v442c0 9.33301 3.33301 17.333 10 24s14.667 10 24 10s17.333 -3.33301 24 -10s10 -14.667 10 -24v-442c0 -146 -78 -219 -234 -219zM236.998 740.999c-24 0 -36 12.333 -36 37
c0 25.333 12 38 36 38s36 -12.667 36 -38c0 -24.667 -12 -37 -36 -37zM393.998 740.999c-24 0 -36 12.333 -36 37c0 25.333 12 38 36 38s36 -12.667 36 -38c0 -24.667 -12 -37 -36 -37z" />
    <glyph glyph-name="Yacute" unicode="&#xdd;" 
d="M259 -8c-9.33301 0 -17.335 3.33301 -24.002 10s-10 14.667 -10 24v287l-201 316c-3.33301 5.33301 -5 11.333 -5 18c0 9.33301 3.33301 17.333 10 24s14.667 10 24 10c12.667 0 22.334 -5.33301 29.001 -16l177 -284l177 284c6.66699 10.667 16.334 16 29.001 16
c9.33301 0 17.333 -3.33301 24 -10s10 -14.667 10 -24c0 -6.66699 -1.66699 -12.667 -5 -18l-201 -316v-287c0 -9.33301 -3.33301 -17.333 -10 -24s-14.667 -10 -24 -10zM215.998 724c-10.667 8.66699 -11.668 18.667 -3.00098 30l89 108
c10.667 13.333 23.334 13.333 38.001 0c14 -13.333 15 -26 3 -38l-97 -98c-10 -10 -20 -10.667 -30 -2z" />
    <glyph glyph-name="Thorn" unicode="&#xde;" horiz-adv-x="544" 
d="M148 154v-128c0 -9.33301 -3.33301 -17.333 -10 -24s-14.667 -10 -24 -10s-17.333 3.33301 -24 10s-10 14.667 -10 24v621c0 9.33301 3.33301 17.333 10 24s14.667 10 24 10s17.333 -3.33301 24 -10s10 -14.667 10 -24v-102h165c56.667 0 102.667 -16.5 138 -49.5
s53 -81.5 53 -145.5c0 -63.333 -17.667 -111.833 -53 -145.5s-81.333 -50.5 -138 -50.5h-165zM148 483l0.00195312 -267h155c41.333 0 73.666 11.667 96.999 35s35 56.333 35 99c0 43.333 -11.833 76.333 -35.5 99s-55.834 34 -96.501 34h-155z" />
    <glyph glyph-name="germandbls" unicode="&#xdf;" horiz-adv-x="547" 
d="M234 685c42.667 0 79.168 -12.501 109.501 -37.501s45.5 -56.167 45.5 -93.5c0 -26 -7.66699 -49.667 -23 -71s-32.333 -37.833 -51 -49.5s-35.667 -25.167 -51 -40.5s-23 -31 -23 -47c0 -19.333 9 -35.333 27 -48s39.833 -23.167 65.5 -31.5s51.5 -17.5 77.5 -27.5
s48 -25 66 -45s27 -44.667 27 -74c0 -43.333 -15.833 -76.166 -47.5 -98.499s-72.5 -33.5 -122.5 -33.5c-38 0 -72.333 7.33301 -103 22s-53.334 31.334 -68.001 50.001c-4.66699 6.66699 -7 13 -7 19c0 8 2.83301 14.833 8.5 20.5s12.5 8.5 20.5 8.5
s15.333 -3.33301 22 -10c32.667 -32.667 75 -49 127 -49c31.333 0 56.833 5.66699 76.5 17s29.5 29.333 29.5 54c0 18.667 -9 34.167 -27 46.5s-40 22.666 -66 30.999s-51.833 17.5 -77.5 27.5s-47.5 25.167 -65.5 45.5s-27 45.5 -27 75.5c0 19.333 5 37 15 53
s22.333 29.333 37 40l44 31.5c14.667 10.333 27 22.5 37 36.5s15 29.667 15 47c0 19.333 -8.5 36 -25.5 50s-38.833 21 -65.5 21c-70 0 -105 -37.333 -105 -112v-489c0 -9.33301 -3.16699 -17 -9.5 -23s-13.833 -9 -22.5 -9s-16.167 3 -22.5 9s-9.5 13.667 -9.5 23v489
c0 49.333 13.833 90.333 41.5 123s70.167 49 127.5 49z" />
    <glyph glyph-name="agrave" unicode="&#xe0;" horiz-adv-x="467" 
d="M232 408c-47.333 0 -85.9971 -16.999 -115.997 -50.999c-8.66699 -9.33301 -17.334 -14 -26.001 -14c-8 0 -14.833 2.83301 -20.5 8.5s-8.5 12.5 -8.5 20.5c0 6 1.66699 11.667 5 17c33.333 52.667 88.666 79 165.999 79c57.333 0 101.666 -15.333 132.999 -46
s47 -72 47 -124v-275c0 -8.66699 -3 -16 -9 -22s-13.333 -9 -22 -9s-16 3 -22 9s-9 13.333 -9 22v36c-12 -22.667 -31 -40.334 -57 -53.001s-54.667 -19 -86 -19c-53.333 0 -95.5 12.5 -126.5 37.5s-46.5 60.167 -46.5 105.5c0 44 15.667 78.5 47 103.5s74 37.5 128 37.5
h141v27c0 34 -10.5 60.833 -31.5 80.5s-49.833 29.5 -86.5 29.5zM213.003 45.001c37.333 0 69.5 11.333 96.5 34s40.5 54 40.5 94v42h-141c-34 0 -60.833 -7.16699 -80.5 -21.5s-29.5 -35.5 -29.5 -63.5c0 -56.667 38 -85 114 -85zM297.003 520.001
c-10 -8.66699 -20.001 -8 -30.001 2l-97 98c-12 12 -11 24.667 3 38c14.667 13.333 27.334 13.333 38.001 0l89 -108c8.66699 -11.333 7.66699 -21.333 -3 -30z" />
    <glyph glyph-name="aacute" unicode="&#xe1;" horiz-adv-x="467" 
d="M232 408c-47.333 0 -85.9971 -16.999 -115.997 -50.999c-8.66699 -9.33301 -17.334 -14 -26.001 -14c-8 0 -14.833 2.83301 -20.5 8.5s-8.5 12.5 -8.5 20.5c0 6 1.66699 11.667 5 17c33.333 52.667 88.666 79 165.999 79c57.333 0 101.666 -15.333 132.999 -46
s47 -72 47 -124v-275c0 -8.66699 -3 -16 -9 -22s-13.333 -9 -22 -9s-16 3 -22 9s-9 13.333 -9 22v36c-12 -22.667 -31 -40.334 -57 -53.001s-54.667 -19 -86 -19c-53.333 0 -95.5 12.5 -126.5 37.5s-46.5 60.167 -46.5 105.5c0 44 15.667 78.5 47 103.5s74 37.5 128 37.5
h141v27c0 34 -10.5 60.833 -31.5 80.5s-49.833 29.5 -86.5 29.5zM213.003 45.001c37.333 0 69.5 11.333 96.5 34s40.5 54 40.5 94v42h-141c-34 0 -60.833 -7.16699 -80.5 -21.5s-29.5 -35.5 -29.5 -63.5c0 -56.667 38 -85 114 -85zM177.003 520.001
c-10.667 8.66699 -11.668 18.667 -3.00098 30l89 108c10.667 13.333 23.334 13.333 38.001 0c14 -13.333 15 -26 3 -38l-97 -98c-10 -10 -20 -10.667 -30 -2z" />
    <glyph glyph-name="acircumflex" unicode="&#xe2;" horiz-adv-x="467" 
d="M232 408c-47.333 0 -85.9971 -16.999 -115.997 -50.999c-8.66699 -9.33301 -17.334 -14 -26.001 -14c-8 0 -14.833 2.83301 -20.5 8.5s-8.5 12.5 -8.5 20.5c0 6 1.66699 11.667 5 17c33.333 52.667 88.666 79 165.999 79c57.333 0 101.666 -15.333 132.999 -46
s47 -72 47 -124v-275c0 -8.66699 -3 -16 -9 -22s-13.333 -9 -22 -9s-16 3 -22 9s-9 13.333 -9 22v36c-12 -22.667 -31 -40.334 -57 -53.001s-54.667 -19 -86 -19c-53.333 0 -95.5 12.5 -126.5 37.5s-46.5 60.167 -46.5 105.5c0 44 15.667 78.5 47 103.5s74 37.5 128 37.5
h141v27c0 34 -10.5 60.833 -31.5 80.5s-49.833 29.5 -86.5 29.5zM213.003 45.001c37.333 0 69.5 11.333 96.5 34s40.5 54 40.5 94v42h-141c-34 0 -60.833 -7.16699 -80.5 -21.5s-29.5 -35.5 -29.5 -63.5c0 -56.667 38 -85 114 -85zM314.003 528.001l-80.9961 68l-81 -68
c-4 -4 -9.33301 -6 -16 -6s-12.334 2.33301 -17.001 7s-7 10.334 -7 17.001c0 8 3 14.333 9 19l96 79c5.33301 4 10.666 6 15.999 6s10.666 -2 15.999 -6l96 -79c6 -4.66699 9 -11 9 -19c0 -6.66699 -2.33301 -12.334 -7 -17.001s-10.334 -7 -17.001 -7s-12 2 -16 6z" />
    <glyph glyph-name="atilde" unicode="&#xe3;" horiz-adv-x="467" 
d="M232 408c-47.333 0 -85.9971 -16.999 -115.997 -50.999c-8.66699 -9.33301 -17.334 -14 -26.001 -14c-8 0 -14.833 2.83301 -20.5 8.5s-8.5 12.5 -8.5 20.5c0 6 1.66699 11.667 5 17c33.333 52.667 88.666 79 165.999 79c57.333 0 101.666 -15.333 132.999 -46
s47 -72 47 -124v-275c0 -8.66699 -3 -16 -9 -22s-13.333 -9 -22 -9s-16 3 -22 9s-9 13.333 -9 22v36c-12 -22.667 -31 -40.334 -57 -53.001s-54.667 -19 -86 -19c-53.333 0 -95.5 12.5 -126.5 37.5s-46.5 60.167 -46.5 105.5c0 44 15.667 78.5 47 103.5s74 37.5 128 37.5
h141v27c0 34 -10.5 60.833 -31.5 80.5s-49.833 29.5 -86.5 29.5zM213.003 45.001c37.333 0 69.5 11.333 96.5 34s40.5 54 40.5 94v42h-141c-34 0 -60.833 -7.16699 -80.5 -21.5s-29.5 -35.5 -29.5 -63.5c0 -56.667 38 -85 114 -85zM177.003 617.001
c16.667 0 37.332 -6.5 61.999 -19.5s43.334 -19.5 56.001 -19.5c16.667 0 32 9.33301 46 28c5.33301 7.33301 12 11 20 11c6.66699 0 12.334 -2.33301 17.001 -7s7 -10.334 7 -17.001c0 -4 -1 -8 -3 -12c-17.333 -34.667 -46.333 -52 -87 -52c-17.333 0 -38 6.5 -62 19.5
s-42.667 19.5 -56 19.5c-16.667 0 -32 -9.33301 -46 -28c-5.33301 -7.33301 -12 -11 -20 -11c-6.66699 0 -12.334 2.33301 -17.001 7s-7 10.334 -7 17.001c0 4 1 8 3 12c17.333 34.667 46.333 52 87 52z" />
    <glyph glyph-name="adieresis" unicode="&#xe4;" horiz-adv-x="467" 
d="M232 408c-47.333 0 -85.9971 -16.999 -115.997 -50.999c-8.66699 -9.33301 -17.334 -14 -26.001 -14c-8 0 -14.833 2.83301 -20.5 8.5s-8.5 12.5 -8.5 20.5c0 6 1.66699 11.667 5 17c33.333 52.667 88.666 79 165.999 79c57.333 0 101.666 -15.333 132.999 -46
s47 -72 47 -124v-275c0 -8.66699 -3 -16 -9 -22s-13.333 -9 -22 -9s-16 3 -22 9s-9 13.333 -9 22v36c-12 -22.667 -31 -40.334 -57 -53.001s-54.667 -19 -86 -19c-53.333 0 -95.5 12.5 -126.5 37.5s-46.5 60.167 -46.5 105.5c0 44 15.667 78.5 47 103.5s74 37.5 128 37.5
h141v27c0 34 -10.5 60.833 -31.5 80.5s-49.833 29.5 -86.5 29.5zM213.003 45.001c37.333 0 69.5 11.333 96.5 34s40.5 54 40.5 94v42h-141c-34 0 -60.833 -7.16699 -80.5 -21.5s-29.5 -35.5 -29.5 -63.5c0 -56.667 38 -85 114 -85zM162.003 534.001c-24 0 -36 12.333 -36 37
c0 25.333 12 38 36 38s36 -12.667 36 -38c0 -24.667 -12 -37 -36 -37zM319.003 534.001c-24 0 -36 12.333 -36 37c0 25.333 12 38 36 38s36 -12.667 36 -38c0 -24.667 -12 -37 -36 -37z" />
    <glyph glyph-name="aring" unicode="&#xe5;" horiz-adv-x="467" 
d="M232 408c-47.333 0 -85.9971 -16.999 -115.997 -50.999c-8.66699 -9.33301 -17.334 -14 -26.001 -14c-8 0 -14.833 2.83301 -20.5 8.5s-8.5 12.5 -8.5 20.5c0 6 1.66699 11.667 5 17c33.333 52.667 88.666 79 165.999 79c57.333 0 101.666 -15.333 132.999 -46
s47 -72 47 -124v-275c0 -8.66699 -3 -16 -9 -22s-13.333 -9 -22 -9s-16 3 -22 9s-9 13.333 -9 22v36c-12 -22.667 -31 -40.334 -57 -53.001s-54.667 -19 -86 -19c-53.333 0 -95.5 12.5 -126.5 37.5s-46.5 60.167 -46.5 105.5c0 44 15.667 78.5 47 103.5s74 37.5 128 37.5
h141v27c0 34 -10.5 60.833 -31.5 80.5s-49.833 29.5 -86.5 29.5zM213.003 45.001c37.333 0 69.5 11.333 96.5 34s40.5 54 40.5 94v42h-141c-34 0 -60.833 -7.16699 -80.5 -21.5s-29.5 -35.5 -29.5 -63.5c0 -56.667 38 -85 114 -85zM241.003 502.001
c-69.333 0 -104 32.667 -104 98s34.667 98 104 98s104 -32.667 104 -98s-34.667 -98 -104 -98zM241.003 660.001c-22.667 0 -38.667 -4.83301 -48 -14.5s-14 -24.834 -14 -45.501c0 -20 4.83301 -35 14.5 -45s25.5 -15 47.5 -15s37.833 5 47.5 15s14.5 25 14.5 45
c0 20.667 -4.66699 35.834 -14 45.501s-25.333 14.5 -48 14.5z" />
    <glyph glyph-name="ae" unicode="&#xe6;" horiz-adv-x="778" 
d="M232 408c-26 0 -47.332 -3.83398 -63.999 -11.501s-34 -20.834 -52 -39.501c-8.66699 -9.33301 -17.334 -14 -26.001 -14c-8 0 -14.833 2.83301 -20.5 8.5s-8.5 12.5 -8.5 20.5c0 6 1.66699 11.667 5 17c33.333 52.667 88.666 79 165.999 79
c76.667 0 129.334 -26.667 158.001 -80c34.667 53.333 89 80 163 80c37.333 0 69.5 -6.66699 96.5 -20s46.833 -30.666 59.5 -51.999s21.667 -41.833 27 -61.5s8 -39.5 8 -59.5c0 -10 -0.333008 -17.667 -1 -23s-2 -11.666 -4 -18.999s-6 -12.833 -12 -16.5
s-13.667 -5.5 -23 -5.5h-292c0 -50 13.5 -90 40.5 -120s63.833 -45 110.5 -45c42 0 82 14.333 120 43c6 4 12 6 18 6c8 0 14.833 -2.83301 20.5 -8.5s8.5 -12.5 8.5 -20.5s-3.66699 -15.667 -11 -23c-37.333 -37.333 -89.333 -56 -156 -56c-94 0 -153.667 33 -179 99
c-33.333 -66 -92.333 -99 -177 -99c-53.333 0 -95.5 12.5 -126.5 37.5s-46.5 60.167 -46.5 105.5c0 43.333 15.5 77 46.5 101s73.833 36 128.5 36h141v31c0 34 -10.5 60.833 -31.5 80.5s-49.833 29.5 -86.5 29.5zM213.001 44.999c37.333 0 69.5 11.333 96.5 34
s40.5 54 40.5 94v38h-141c-73.333 0 -110 -27 -110 -81c0 -56.667 38 -85 114 -85zM681.001 266.999c0 95.333 -42.667 143 -128 143c-42.667 0 -76 -12.5 -100 -37.5s-37.667 -60.167 -41 -105.5h269z" />
    <glyph glyph-name="ccedilla" unicode="&#xe7;" horiz-adv-x="441" 
d="M344 -139c0 -56.667 -32.3359 -85 -97.0029 -85c-25.333 0 -46.666 6 -63.999 18c-5.33301 4 -8 9 -8 15c0 5.33301 1.83301 9.83301 5.5 13.5s7.83398 5.5 12.501 5.5c4 0 8 -1 12 -3c13.333 -6.66699 27.333 -10 42 -10c18.667 0 32.167 3.16699 40.5 9.5
s12.5 18.5 12.5 36.5c0 30.667 -14.667 46 -44 46c-6 0 -13.5 -0.666992 -22.5 -2s-15.167 -2 -18.5 -2c-12.667 0 -18.667 7.33301 -18 22l2 65c-109.333 16 -164 95.333 -164 238c0 80.667 17.833 140.834 53.5 180.501s86.5 59.5 152.5 59.5c38.667 0 71 -7.33301 97 -22
s45 -30.334 57 -47.001c4.66699 -6.66699 7 -13 7 -19c0 -8.66699 -2.83301 -15.667 -8.5 -21s-12.5 -8 -20.5 -8c-8.66699 0 -16.667 4 -24 12c-27.333 31.333 -63.333 47 -108 47c-94 0 -141 -60.667 -141 -182c0 -122 47 -183 141 -183
c38.667 0 77.334 14.333 116.001 43c6.66699 4.66699 13 7 19 7c8 0 14.833 -2.83301 20.5 -8.5s8.5 -12.5 8.5 -20.5c0 -8.66699 -4.33301 -17 -13 -25c-44 -36 -96.667 -54 -158 -54l-4 -46c12 1.33301 21 2 27 2c58 0 87 -27.333 87 -82z" />
    <glyph glyph-name="egrave" unicode="&#xe8;" horiz-adv-x="466" 
d="M35 228c0 76.667 18.001 135.832 54.001 177.499s86.667 62.5 152 62.5c30.667 0 57.667 -4.66699 81 -14s41.833 -21 55.5 -35s24.667 -30.167 33 -48.5s14 -35.333 17 -51s4.5 -31.167 4.5 -46.5c0 -10 -0.333008 -17.667 -1 -23s-2 -11.666 -4 -18.999
s-6 -12.833 -12 -16.5s-13.667 -5.5 -23 -5.5h-292c0 -50 13.5 -89.667 40.5 -119s63.833 -44 110.5 -44c42 0 82 14.333 120 43c6 4 12 6 18 6c8 0 14.833 -2.83301 20.5 -8.5s8.5 -12.5 8.5 -20.5s-3.66699 -15.667 -11 -23c-37.333 -37.333 -89.333 -56 -156 -56
c-68.667 0 -121.834 19.833 -159.501 59.5s-56.5 100.167 -56.5 181.5zM369.001 264.998c0 96.667 -42.667 145 -128 145c-42.667 0 -76 -12.833 -100 -38.5s-37.667 -61.167 -41 -106.5h269zM303.001 519.998c-10 -8.66699 -20.001 -8 -30.001 2l-97 98
c-12 12 -11 24.667 3 38c14.667 13.333 27.334 13.333 38.001 0l89 -108c8.66699 -11.333 7.66699 -21.333 -3 -30z" />
    <glyph glyph-name="eacute" unicode="&#xe9;" horiz-adv-x="466" 
d="M35 228c0 76.667 18.001 135.832 54.001 177.499s86.667 62.5 152 62.5c30.667 0 57.667 -4.66699 81 -14s41.833 -21 55.5 -35s24.667 -30.167 33 -48.5s14 -35.333 17 -51s4.5 -31.167 4.5 -46.5c0 -10 -0.333008 -17.667 -1 -23s-2 -11.666 -4 -18.999
s-6 -12.833 -12 -16.5s-13.667 -5.5 -23 -5.5h-292c0 -50 13.5 -89.667 40.5 -119s63.833 -44 110.5 -44c42 0 82 14.333 120 43c6 4 12 6 18 6c8 0 14.833 -2.83301 20.5 -8.5s8.5 -12.5 8.5 -20.5s-3.66699 -15.667 -11 -23c-37.333 -37.333 -89.333 -56 -156 -56
c-68.667 0 -121.834 19.833 -159.501 59.5s-56.5 100.167 -56.5 181.5zM369.001 264.998c0 96.667 -42.667 145 -128 145c-42.667 0 -76 -12.833 -100 -38.5s-37.667 -61.167 -41 -106.5h269zM191.001 519.998c-10.667 8.66699 -11.668 18.667 -3.00098 30l89 108
c10.667 13.333 23.334 13.333 38.001 0c14 -13.333 15 -26 3 -38l-97 -98c-10 -10 -20 -10.667 -30 -2z" />
    <glyph glyph-name="ecircumflex" unicode="&#xea;" horiz-adv-x="466" 
d="M35 228c0 76.667 18.001 135.832 54.001 177.499s86.667 62.5 152 62.5c30.667 0 57.667 -4.66699 81 -14s41.833 -21 55.5 -35s24.667 -30.167 33 -48.5s14 -35.333 17 -51s4.5 -31.167 4.5 -46.5c0 -10 -0.333008 -17.667 -1 -23s-2 -11.666 -4 -18.999
s-6 -12.833 -12 -16.5s-13.667 -5.5 -23 -5.5h-292c0 -50 13.5 -89.667 40.5 -119s63.833 -44 110.5 -44c42 0 82 14.333 120 43c6 4 12 6 18 6c8 0 14.833 -2.83301 20.5 -8.5s8.5 -12.5 8.5 -20.5s-3.66699 -15.667 -11 -23c-37.333 -37.333 -89.333 -56 -156 -56
c-68.667 0 -121.834 19.833 -159.501 59.5s-56.5 100.167 -56.5 181.5zM369.001 264.998c0 96.667 -42.667 145 -128 145c-42.667 0 -76 -12.833 -100 -38.5s-37.667 -61.167 -41 -106.5h269zM326.001 527.998l-80.9961 68l-81 -68c-4 -4 -9.33301 -6 -16 -6
s-12.334 2.33301 -17.001 7s-7 10.334 -7 17.001c0 8 3 14.333 9 19l96 79c5.33301 4 10.666 6 15.999 6s10.666 -2 15.999 -6l96 -79c6 -4.66699 9 -11 9 -19c0 -6.66699 -2.33301 -12.334 -7 -17.001s-10.334 -7 -17.001 -7s-12 2 -16 6z" />
    <glyph glyph-name="edieresis" unicode="&#xeb;" horiz-adv-x="466" 
d="M35 228c0 76.667 18.001 135.832 54.001 177.499s86.667 62.5 152 62.5c30.667 0 57.667 -4.66699 81 -14s41.833 -21 55.5 -35s24.667 -30.167 33 -48.5s14 -35.333 17 -51s4.5 -31.167 4.5 -46.5c0 -10 -0.333008 -17.667 -1 -23s-2 -11.666 -4 -18.999
s-6 -12.833 -12 -16.5s-13.667 -5.5 -23 -5.5h-292c0 -50 13.5 -89.667 40.5 -119s63.833 -44 110.5 -44c42 0 82 14.333 120 43c6 4 12 6 18 6c8 0 14.833 -2.83301 20.5 -8.5s8.5 -12.5 8.5 -20.5s-3.66699 -15.667 -11 -23c-37.333 -37.333 -89.333 -56 -156 -56
c-68.667 0 -121.834 19.833 -159.501 59.5s-56.5 100.167 -56.5 181.5zM369.001 264.998c0 96.667 -42.667 145 -128 145c-42.667 0 -76 -12.833 -100 -38.5s-37.667 -61.167 -41 -106.5h269zM166.001 533.998c-24 0 -36 12.333 -36 37c0 25.333 12 38 36 38
s36 -12.667 36 -38c0 -24.667 -12 -37 -36 -37zM323.001 533.998c-24 0 -36 12.333 -36 37c0 25.333 12 38 36 38s36 -12.667 36 -38c0 -24.667 -12 -37 -36 -37z" />
    <glyph glyph-name="igrave" unicode="&#xec;" horiz-adv-x="193" 
d="M128 430v-406c0 -9.33301 -3 -17 -9 -23s-13.667 -9 -23 -9s-17 3 -23 9s-9 13.667 -9 23v406c0 9.33301 3 17 9 23s13.667 9 23 9s17 -3 23 -9s9 -13.667 9 -23zM149 520c-10 -8.66699 -20.001 -8 -30.001 2l-97 98c-12 12 -11 24.667 3 38
c14.667 13.333 27.334 13.333 38.001 0l89 -108c8.66699 -11.333 7.66699 -21.333 -3 -30z" />
    <glyph glyph-name="iacute" unicode="&#xed;" horiz-adv-x="193" 
d="M128 430v-406c0 -9.33301 -3 -17 -9 -23s-13.667 -9 -23 -9s-17 3 -23 9s-9 13.667 -9 23v406c0 9.33301 3 17 9 23s13.667 9 23 9s17 -3 23 -9s9 -13.667 9 -23zM53 520c-10.667 8.66699 -11.668 18.667 -3.00098 30l89 108c10.667 13.333 23.334 13.333 38.001 0
c14 -13.333 15 -26 3 -38l-97 -98c-10 -10 -20 -10.667 -30 -2z" />
    <glyph glyph-name="icircumflex" unicode="&#xee;" horiz-adv-x="193" 
d="M128 430v-406c0 -9.33301 -3 -17 -9 -23s-13.667 -9 -23 -9s-17 3 -23 9s-9 13.667 -9 23v406c0 9.33301 3 17 9 23s13.667 9 23 9s17 -3 23 -9s9 -13.667 9 -23zM177 528l-80.9961 68l-81 -68c-4 -4 -9.33301 -6 -16 -6s-12.334 2.33301 -17.001 7s-7 10.334 -7 17.001
c0 8 3 14.333 9 19l96 79c5.33301 4 10.666 6 15.999 6s10.666 -2 15.999 -6l96 -79c6 -4.66699 9 -11 9 -19c0 -6.66699 -2.33301 -12.334 -7 -17.001s-10.334 -7 -17.001 -7s-12 2 -16 6z" />
    <glyph glyph-name="idieresis" unicode="&#xef;" horiz-adv-x="193" 
d="M128 430v-406c0 -9.33301 -3 -17 -9 -23s-13.667 -9 -23 -9s-17 3 -23 9s-9 13.667 -9 23v406c0 9.33301 3 17 9 23s13.667 9 23 9s17 -3 23 -9s9 -13.667 9 -23zM18 534c-24 0 -36 12.333 -36 37c0 25.333 12 38 36 38s36 -12.667 36 -38c0 -24.667 -12 -37 -36 -37z
M175 534c-24 0 -36 12.333 -36 37c0 25.333 12 38 36 38s36 -12.667 36 -38c0 -24.667 -12 -37 -36 -37z" />
    <glyph glyph-name="eth" unicode="&#xf0;" horiz-adv-x="492" 
d="M245 468c46 0 84.667 -10.333 116 -31c-12.667 48.667 -34.667 89.334 -66 122.001l-56 -38l-17 -5c-8.66699 0 -15.834 2.83301 -21.501 8.5s-8.5 12.834 -8.5 21.501c0 11.333 4.33301 19.666 13 24.999l49 32c-16 14 -42.333 32 -79 54c-10.667 6 -16 15 -16 27
c0 7.33301 2.83301 13.833 8.5 19.5s12.5 8.5 20.5 8.5c5.33301 0 10.666 -1.33301 15.999 -4c31.333 -15.333 65 -39.333 101 -72l44 28c4.66699 3.33301 10.334 5 17.001 5c8.66699 0 15.834 -2.83301 21.501 -8.5s8.5 -12.834 8.5 -21.501
c0 -10.667 -4.33301 -19 -13 -25l-37 -24c72.667 -92 109 -212.667 109 -362c0 -80 -18.333 -140.167 -55 -180.5s-88.334 -60.5 -155.001 -60.5c-66 0 -117.5 20.167 -154.5 60.5s-55.5 100.5 -55.5 180.5s18.333 140 55 180s88.334 60 155.001 60zM245 45
c96.667 0 145 61 145 183c0 121.333 -48.333 182 -145 182s-145 -60.667 -145 -182c0 -122 48.333 -183 145 -183z" />
    <glyph glyph-name="ntilde" unicode="&#xf1;" horiz-adv-x="501" 
d="M262 468c122.667 0 183.999 -59 183.999 -177v-267c0 -9.33301 -3 -17 -9 -23s-13.667 -9 -23 -9s-17 3 -23 9s-9 13.667 -9 23v254c0 43.333 -8.66699 76.333 -26 99s-48.666 34 -93.999 34c-88.667 0 -133 -46.667 -133 -140v-247c0 -9.33301 -3.16699 -17 -9.5 -23
s-13.833 -9 -22.5 -9s-16.167 3 -22.5 9s-9.5 13.667 -9.5 23v406c0 9.33301 3.16699 17 9.5 23s13.833 9 22.5 9s16.167 -3 22.5 -9s9.5 -13.667 9.5 -23v-32c10 20 26.833 36.667 50.5 50s51.167 20 82.5 20zM195.999 617c17.333 0 38 -6.5 62 -19.5
s42.667 -19.5 56 -19.5c16.667 0 32 9.33301 46 28c5.33301 7.33301 12 11 20 11c6.66699 0 12.334 -2.33301 17.001 -7s7 -10.334 7 -17.001c0 -4 -1 -8 -3 -12c-17.333 -34.667 -46.333 -52 -87 -52c-17.333 0 -38 6.5 -62 19.5s-42.667 19.5 -56 19.5
c-16.667 0 -32 -9.33301 -46 -28c-5.33301 -7.33301 -12 -11 -20 -11c-6.66699 0 -12.334 2.33301 -17.001 7s-7 10.334 -7 17.001c0 4 1 8 3 12c17.333 34.667 46.333 52 87 52z" />
    <glyph glyph-name="ograve" unicode="&#xf2;" horiz-adv-x="490" 
d="M245 468c66.667 0 118.333 -20 155 -60s55 -100 55 -180s-18.333 -140.167 -55 -180.5s-88.334 -60.5 -155.001 -60.5c-66 0 -117.5 20.167 -154.5 60.5s-55.5 100.5 -55.5 180.5s18.333 140 55 180s88.334 60 155.001 60zM244.999 45c96.667 0 145 61 145 183
c0 121.333 -48.333 182 -145 182s-145 -60.667 -145 -182c0 -122 48.333 -183 145 -183zM316.999 520c-10 -8.66699 -20.001 -8 -30.001 2l-97 98c-12 12 -11 24.667 3 38c14.667 13.333 27.334 13.333 38.001 0l89 -108c8.66699 -11.333 7.66699 -21.333 -3 -30z" />
    <glyph glyph-name="oacute" unicode="&#xf3;" horiz-adv-x="490" 
d="M245 468c66.667 0 118.333 -20 155 -60s55 -100 55 -180s-18.333 -140.167 -55 -180.5s-88.334 -60.5 -155.001 -60.5c-66 0 -117.5 20.167 -154.5 60.5s-55.5 100.5 -55.5 180.5s18.333 140 55 180s88.334 60 155.001 60zM244.999 45c96.667 0 145 61 145 183
c0 121.333 -48.333 182 -145 182s-145 -60.667 -145 -182c0 -122 48.333 -183 145 -183zM199.999 520c-10.667 8.66699 -11.668 18.667 -3.00098 30l89 108c10.667 13.333 23.334 13.333 38.001 0c14 -13.333 15 -26 3 -38l-97 -98c-10 -10 -20 -10.667 -30 -2z" />
    <glyph glyph-name="ocircumflex" unicode="&#xf4;" horiz-adv-x="490" 
d="M245 468c66.667 0 118.333 -20 155 -60s55 -100 55 -180s-18.333 -140.167 -55 -180.5s-88.334 -60.5 -155.001 -60.5c-66 0 -117.5 20.167 -154.5 60.5s-55.5 100.5 -55.5 180.5s18.333 140 55 180s88.334 60 155.001 60zM244.999 45c96.667 0 145 61 145 183
c0 121.333 -48.333 182 -145 182s-145 -60.667 -145 -182c0 -122 48.333 -183 145 -183zM329.999 528l-80.9961 68l-81 -68c-4 -4 -9.33301 -6 -16 -6s-12.334 2.33301 -17.001 7s-7 10.334 -7 17.001c0 8 3 14.333 9 19l96 79c5.33301 4 10.666 6 15.999 6
s10.666 -2 15.999 -6l96 -79c6 -4.66699 9 -11 9 -19c0 -6.66699 -2.33301 -12.334 -7 -17.001s-10.334 -7 -17.001 -7s-12 2 -16 6z" />
    <glyph glyph-name="otilde" unicode="&#xf5;" horiz-adv-x="490" 
d="M245 468c66.667 0 118.333 -20 155 -60s55 -100 55 -180s-18.333 -140.167 -55 -180.5s-88.334 -60.5 -155.001 -60.5c-66 0 -117.5 20.167 -154.5 60.5s-55.5 100.5 -55.5 180.5s18.333 140 55 180s88.334 60 155.001 60zM244.999 45c96.667 0 145 61 145 183
c0 121.333 -48.333 182 -145 182s-145 -60.667 -145 -182c0 -122 48.333 -183 145 -183zM187.999 617c17.333 0 38 -6.5 62 -19.5s42.667 -19.5 56 -19.5c16.667 0 32 9.33301 46 28c5.33301 7.33301 12 11 20 11c6.66699 0 12.334 -2.33301 17.001 -7s7 -10.334 7 -17.001
c0 -4 -1 -8 -3 -12c-17.333 -34.667 -46.333 -52 -87 -52c-17.333 0 -38 6.5 -62 19.5s-42.667 19.5 -56 19.5c-16.667 0 -32 -9.33301 -46 -28c-5.33301 -7.33301 -12 -11 -20 -11c-6.66699 0 -12.334 2.33301 -17.001 7s-7 10.334 -7 17.001c0 4 1 8 3 12
c17.333 34.667 46.333 52 87 52z" />
    <glyph glyph-name="odieresis" unicode="&#xf6;" horiz-adv-x="490" 
d="M245 468c66.667 0 118.333 -20 155 -60s55 -100 55 -180s-18.333 -140.167 -55 -180.5s-88.334 -60.5 -155.001 -60.5c-66 0 -117.5 20.167 -154.5 60.5s-55.5 100.5 -55.5 180.5s18.333 140 55 180s88.334 60 155.001 60zM244.999 45c96.667 0 145 61 145 183
c0 121.333 -48.333 182 -145 182s-145 -60.667 -145 -182c0 -122 48.333 -183 145 -183zM170.999 534c-24 0 -36 12.333 -36 37c0 25.333 12 38 36 38s36 -12.667 36 -38c0 -24.667 -12 -37 -36 -37zM327.999 534c-24 0 -36 12.333 -36 37c0 25.333 12 38 36 38
s36 -12.667 36 -38c0 -24.667 -12 -37 -36 -37z" />
    <glyph glyph-name="divide" unicode="&#xf7;" horiz-adv-x="454" 
d="M194 97c0 9.33301 3.16699 17.166 9.5 23.499s14.166 9.5 23.499 9.5s17.333 -3.16699 24 -9.5s10 -14.166 10 -23.499s-3.33301 -17.333 -10 -24s-14.667 -10 -24 -10s-17.166 3.33301 -23.499 10s-9.5 14.667 -9.5 24zM194 340c0 9.33301 3.16699 17.333 9.5 24
s14.166 10 23.499 10s17.333 -3.33301 24 -10s10 -14.667 10 -24s-3.33301 -17.166 -10 -23.499s-14.667 -9.5 -24 -9.5s-17.166 3.16699 -23.499 9.5s-9.5 14.166 -9.5 23.499zM454 219c0 -7.33301 -2.66699 -13.666 -8 -18.999s-11.666 -8 -18.999 -8h-400
c-7.33301 0 -13.666 2.66699 -18.999 8s-8 11.666 -8 18.999s2.66699 13.666 8 18.999s11.666 8 18.999 8h400c7.33301 0 13.666 -2.66699 18.999 -8s8 -11.666 8 -18.999z" />
    <glyph glyph-name="oslash" unicode="&#xf8;" horiz-adv-x="490" 
d="M245 468c59.333 0 106.667 -16 142 -48l37 40c5.33301 5.33301 11.666 8 18.999 8s13.5 -2.66699 18.5 -8s7.5 -11.333 7.5 -18c0 -7.33301 -2.66699 -13.666 -8 -18.999l-41 -43c23.333 -38.667 35 -89.334 35 -152.001c0 -80 -18.333 -140.167 -55 -180.5
s-88.334 -60.5 -155.001 -60.5c-61.333 0 -109.666 16.667 -144.999 50l-36 -38c-4.66699 -4.66699 -10.667 -7 -18 -7c-6.66699 0 -12.667 2.66699 -18 8s-8 11.333 -8 18c0 7.33301 2.66699 13.666 8 18.999l39 42c-21.333 38.667 -32 88.334 -32 149.001
c0 80 18.333 140 55 180s88.334 60 155.001 60zM245.001 45c96.667 0 145 60.999 145 182.999c0 40.667 -5.66699 74.334 -17 101.001l-230 -246c23.333 -25.333 57.333 -38 102 -38zM100.001 227.999c0 -39.333 5 -72 15 -98l229 244c-25.333 24 -58.333 36 -99 36
c-96.667 0 -145 -60.667 -145 -182z" />
    <glyph glyph-name="ugrave" unicode="&#xf9;" horiz-adv-x="482" 
d="M87 462c8.66699 0 16.1699 -3.16699 22.5029 -9.5s9.5 -13.833 9.5 -22.5v-261c0 -37.333 8.66699 -66.833 26 -88.5s49.333 -32.5 96 -32.5s78.667 10.833 96 32.5s26 51.167 26 88.5v261c0 8.66699 3.16699 16.167 9.5 22.5s14.166 9.5 23.499 9.5
c8.66699 0 16 -3.16699 22 -9.5s9 -13.833 9 -22.5v-261c0 -55.333 -13.333 -99.5 -40 -132.5s-75.334 -49.5 -146.001 -49.5s-119.334 16.5 -146.001 49.5s-40 77.167 -40 132.5v261c0 9.33301 3.16699 17 9.5 23s13.833 9 22.5 9zM292.003 520
c-10 -8.66699 -20.001 -8 -30.001 2l-97 98c-12 12 -11 24.667 3 38c14.667 13.333 27.334 13.333 38.001 0l89 -108c8.66699 -11.333 7.66699 -21.333 -3 -30z" />
    <glyph glyph-name="uacute" unicode="&#xfa;" horiz-adv-x="482" 
d="M87 462c8.66699 0 16.1699 -3.16699 22.5029 -9.5s9.5 -13.833 9.5 -22.5v-261c0 -37.333 8.66699 -66.833 26 -88.5s49.333 -32.5 96 -32.5s78.667 10.833 96 32.5s26 51.167 26 88.5v261c0 8.66699 3.16699 16.167 9.5 22.5s14.166 9.5 23.499 9.5
c8.66699 0 16 -3.16699 22 -9.5s9 -13.833 9 -22.5v-261c0 -55.333 -13.333 -99.5 -40 -132.5s-75.334 -49.5 -146.001 -49.5s-119.334 16.5 -146.001 49.5s-40 77.167 -40 132.5v261c0 9.33301 3.16699 17 9.5 23s13.833 9 22.5 9zM202.003 520
c-10.667 8.66699 -11.668 18.667 -3.00098 30l89 108c10.667 13.333 23.334 13.333 38.001 0c14 -13.333 15 -26 3 -38l-97 -98c-10 -10 -20 -10.667 -30 -2z" />
    <glyph glyph-name="ucircumflex" unicode="&#xfb;" horiz-adv-x="482" 
d="M87 462c8.66699 0 16.1699 -3.16699 22.5029 -9.5s9.5 -13.833 9.5 -22.5v-261c0 -37.333 8.66699 -66.833 26 -88.5s49.333 -32.5 96 -32.5s78.667 10.833 96 32.5s26 51.167 26 88.5v261c0 8.66699 3.16699 16.167 9.5 22.5s14.166 9.5 23.499 9.5
c8.66699 0 16 -3.16699 22 -9.5s9 -13.833 9 -22.5v-261c0 -55.333 -13.333 -99.5 -40 -132.5s-75.334 -49.5 -146.001 -49.5s-119.334 16.5 -146.001 49.5s-40 77.167 -40 132.5v261c0 9.33301 3.16699 17 9.5 23s13.833 9 22.5 9zM326.003 528l-80.9961 68l-81 -68
c-4 -4 -9.33301 -6 -16 -6s-12.334 2.33301 -17.001 7s-7 10.334 -7 17.001c0 8 3 14.333 9 19l96 79c5.33301 4 10.666 6 15.999 6s10.666 -2 15.999 -6l96 -79c6 -4.66699 9 -11 9 -19c0 -6.66699 -2.33301 -12.334 -7 -17.001s-10.334 -7 -17.001 -7s-12 2 -16 6z" />
    <glyph glyph-name="udieresis" unicode="&#xfc;" horiz-adv-x="482" 
d="M87 462c8.66699 0 16.1699 -3.16699 22.5029 -9.5s9.5 -13.833 9.5 -22.5v-261c0 -37.333 8.66699 -66.833 26 -88.5s49.333 -32.5 96 -32.5s78.667 10.833 96 32.5s26 51.167 26 88.5v261c0 8.66699 3.16699 16.167 9.5 22.5s14.166 9.5 23.499 9.5
c8.66699 0 16 -3.16699 22 -9.5s9 -13.833 9 -22.5v-261c0 -55.333 -13.333 -99.5 -40 -132.5s-75.334 -49.5 -146.001 -49.5s-119.334 16.5 -146.001 49.5s-40 77.167 -40 132.5v261c0 9.33301 3.16699 17 9.5 23s13.833 9 22.5 9zM169.003 534c-24 0 -36 12.333 -36 37
c0 25.333 12 38 36 38s36 -12.667 36 -38c0 -24.667 -12 -37 -36 -37zM326.003 534c-24 0 -36 12.333 -36 37c0 25.333 12 38 36 38s36 -12.667 36 -38c0 -24.667 -12 -37 -36 -37z" />
    <glyph glyph-name="yacute" unicode="&#xfd;" horiz-adv-x="438" 
d="M35 -141c17.333 0 32.668 2.66504 46.001 7.99805s24.166 11.333 32.499 18s17.333 18.5 27 35.5s17 31 22 42s12.833 29.833 23.5 56.5l-167 397c-2 6 -3 10.667 -3 14c0 9.33301 3 17 9 23s13.667 9 23 9c14.667 0 24.667 -7 30 -21l141 -345l141 345
c5.33301 14 15.333 21 30 21c9.33301 0 17 -3 23 -9s9 -13.667 9 -23c0 -3.33301 -1 -8 -3 -14l-197 -469c-21.333 -50.667 -46.333 -88 -75 -112s-66 -36 -112 -36c-8.66699 0 -15.834 2.83301 -21.501 8.5s-8.5 12.834 -8.5 21.501s2.83301 15.834 8.5 21.501
s12.834 8.5 21.501 8.5zM178.002 519.998c-10.667 8.66699 -11.668 18.667 -3.00098 30l89 108c10.667 13.333 23.334 13.333 38.001 0c14 -13.333 15 -26 3 -38l-97 -98c-10 -10 -20 -10.667 -30 -2z" />
    <glyph glyph-name="thorn" unicode="&#xfe;" horiz-adv-x="509" 
d="M129 680l0.000976562 -282c10.667 18.667 28.167 35 52.5 49s52.166 21 83.499 21c66.667 0 118.167 -20 154.5 -60s54.5 -100 54.5 -180s-18.167 -140.167 -54.5 -180.5s-87.833 -60.5 -154.5 -60.5c-31.333 0 -58.833 6.83301 -82.5 20.5s-41.5 30.167 -53.5 49.5v-226
c0 -8.66699 -3.16699 -16.167 -9.5 -22.5s-13.833 -9.5 -22.5 -9.5s-16.167 3.16699 -22.5 9.5s-9.5 13.833 -9.5 22.5v849c0 9.33301 3.16699 17 9.5 23s13.833 9 22.5 9s16.167 -3 22.5 -9s9.5 -13.667 9.5 -23zM127.001 228c0 -61.333 12.668 -107.167 38.001 -137.5
s58.666 -45.5 99.999 -45.5c96 0 144 61 144 183c0 121.333 -48.667 182 -146 182c-40 0 -72.667 -15 -98 -45s-38 -75.667 -38 -137z" />
    <glyph glyph-name="ydieresis" unicode="&#xff;" horiz-adv-x="438" 
d="M35 -141c17.333 0 32.668 2.66504 46.001 7.99805s24.166 11.333 32.499 18s17.333 18.5 27 35.5s17 31 22 42s12.833 29.833 23.5 56.5l-167 397c-2 6 -3 10.667 -3 14c0 9.33301 3 17 9 23s13.667 9 23 9c14.667 0 24.667 -7 30 -21l141 -345l141 345
c5.33301 14 15.333 21 30 21c9.33301 0 17 -3 23 -9s9 -13.667 9 -23c0 -3.33301 -1 -8 -3 -14l-197 -469c-21.333 -50.667 -46.333 -88 -75 -112s-66 -36 -112 -36c-8.66699 0 -15.834 2.83301 -21.501 8.5s-8.5 12.834 -8.5 21.501s2.83301 15.834 8.5 21.501
s12.834 8.5 21.501 8.5zM140.002 533.998c-24 0 -36 12.333 -36 37c0 25.333 12 38 36 38s36 -12.667 36 -38c0 -24.667 -12 -37 -36 -37zM297.002 533.998c-24 0 -36 12.333 -36 37c0 25.333 12 38 36 38s36 -12.667 36 -38c0 -24.667 -12 -37 -36 -37z" />
    <glyph glyph-name="Amacron" unicode="&#x100;" horiz-adv-x="613" 
d="M425 261l-119 306l-118 -306h237zM446 199h-279.001l-73 -183c-6 -16 -17 -24 -33 -24c-9.33301 0 -17.333 3.33301 -24 10s-10 14.667 -10 24c0 6 1 11 3 15l244 617c6.66699 15.333 17.334 23 32.001 23c15.333 0 26.333 -7.66699 33 -23l244 -617
c2 -5.33301 3 -10.333 3 -15c0 -9.33301 -3.33301 -17.333 -10 -24s-15 -10 -25 -10c-16 0 -27 7.66699 -33 23zM423.999 758c0 -6.66699 -2.33301 -12.5 -7 -17.5s-10.667 -7.5 -18 -7.5h-186c-7.33301 0 -13.333 2.5 -18 7.5s-7 10.833 -7 17.5s2.33301 12.5 7 17.5
s10.667 7.5 18 7.5h186c7.33301 0 13.333 -2.5 18 -7.5s7 -10.833 7 -17.5z" />
    <glyph glyph-name="amacron" unicode="&#x101;" horiz-adv-x="467" 
d="M232 408c-47.333 0 -85.9971 -16.999 -115.997 -50.999c-8.66699 -9.33301 -17.334 -14 -26.001 -14c-8 0 -14.833 2.83301 -20.5 8.5s-8.5 12.5 -8.5 20.5c0 6 1.66699 11.667 5 17c33.333 52.667 88.666 79 165.999 79c57.333 0 101.666 -15.333 132.999 -46
s47 -72 47 -124v-275c0 -8.66699 -3 -16 -9 -22s-13.333 -9 -22 -9s-16 3 -22 9s-9 13.333 -9 22v36c-12 -22.667 -31 -40.334 -57 -53.001s-54.667 -19 -86 -19c-53.333 0 -95.5 12.5 -126.5 37.5s-46.5 60.167 -46.5 105.5c0 44 15.667 78.5 47 103.5s74 37.5 128 37.5
h141v27c0 34 -10.5 60.833 -31.5 80.5s-49.833 29.5 -86.5 29.5zM213.003 45.001c37.333 0 69.5 11.333 96.5 34s40.5 54 40.5 94v42h-141c-34 0 -60.833 -7.16699 -80.5 -21.5s-29.5 -35.5 -29.5 -63.5c0 -56.667 38 -85 114 -85zM356.003 562.001
c0 -6.66699 -2.33301 -12.5 -7 -17.5s-10.667 -7.5 -18 -7.5h-186c-7.33301 0 -13.333 2.5 -18 7.5s-7 10.833 -7 17.5s2.33301 12.5 7 17.5s10.667 7.5 18 7.5h186c7.33301 0 13.333 -2.5 18 -7.5s7 -10.833 7 -17.5z" />
    <glyph glyph-name="Abreve" unicode="&#x102;" horiz-adv-x="613" 
d="M425 261l-119 306l-118 -306h237zM446 199h-279.001l-73 -183c-6 -16 -17 -24 -33 -24c-9.33301 0 -17.333 3.33301 -24 10s-10 14.667 -10 24c0 6 1 11 3 15l244 617c6.66699 15.333 17.334 23 32.001 23c15.333 0 26.333 -7.66699 33 -23l244 -617
c2 -5.33301 3 -10.333 3 -15c0 -9.33301 -3.33301 -17.333 -10 -24s-15 -10 -25 -10c-16 0 -27 7.66699 -33 23zM305.999 730c-32.667 0 -59.6709 8.33301 -81.0039 25s-32 42 -32 76c0 6.66699 2.33301 12.334 7 17.001s10.334 7 17.001 7s12.334 -2.33301 17.001 -7
s7 -10.334 7 -17.001c0 -36.667 21.667 -55 65 -55s65 18.333 65 55c0 6.66699 2.33301 12.334 7 17.001s10.334 7 17.001 7s12.334 -2.33301 17.001 -7s7 -10.334 7 -17.001c0 -34 -10.667 -59.333 -32 -76s-48.333 -25 -81 -25z" />
    <glyph glyph-name="abreve" unicode="&#x103;" horiz-adv-x="467" 
d="M232 408c-47.333 0 -85.9971 -16.999 -115.997 -50.999c-8.66699 -9.33301 -17.334 -14 -26.001 -14c-8 0 -14.833 2.83301 -20.5 8.5s-8.5 12.5 -8.5 20.5c0 6 1.66699 11.667 5 17c33.333 52.667 88.666 79 165.999 79c57.333 0 101.666 -15.333 132.999 -46
s47 -72 47 -124v-275c0 -8.66699 -3 -16 -9 -22s-13.333 -9 -22 -9s-16 3 -22 9s-9 13.333 -9 22v36c-12 -22.667 -31 -40.334 -57 -53.001s-54.667 -19 -86 -19c-53.333 0 -95.5 12.5 -126.5 37.5s-46.5 60.167 -46.5 105.5c0 44 15.667 78.5 47 103.5s74 37.5 128 37.5
h141v27c0 34 -10.5 60.833 -31.5 80.5s-49.833 29.5 -86.5 29.5zM213.003 45.001c37.333 0 69.5 11.333 96.5 34s40.5 54 40.5 94v42h-141c-34 0 -60.833 -7.16699 -80.5 -21.5s-29.5 -35.5 -29.5 -63.5c0 -56.667 38 -85 114 -85zM235.003 529.001
c-32.667 0 -59.6709 8.33301 -81.0039 25s-32 42 -32 76c0 6.66699 2.33301 12.334 7 17.001s10.334 7 17.001 7s12.334 -2.33301 17.001 -7s7 -10.334 7 -17.001c0 -36.667 21.667 -55 65 -55s65 18.333 65 55c0 6.66699 2.33301 12.334 7 17.001s10.334 7 17.001 7
s12.334 -2.33301 17.001 -7s7 -10.334 7 -17.001c0 -34 -10.667 -59.333 -32 -76s-48.333 -25 -81 -25z" />
    <glyph glyph-name="Aogonek" unicode="&#x104;" horiz-adv-x="613" 
d="M425 261l-119 306l-118 -306h237zM446 199h-279.001l-73 -183c-6 -16 -17 -24 -33 -24c-9.33301 0 -17.333 3.33301 -24 10s-10 14.667 -10 24c0 6 1 11 3 15l244 617c6.66699 15.333 17.334 23 32.001 23c15.333 0 26.333 -7.66699 33 -23l244 -617
c2 -5.33301 3 -10.333 3 -15c0 -9.33301 -3.33301 -17.333 -10 -24s-15 -10 -25 -10c-16 0 -27 7.66699 -33 23zM620.999 -125c6 0 11.167 -2.16699 15.5 -6.5s6.5 -9.5 6.5 -15.5c0 -8 -3.66699 -14.333 -11 -19c-19.333 -11.333 -43.333 -17 -72 -17
c-32 0 -57.167 7.33301 -75.5 22s-27.5 35.667 -27.5 63c0 41.333 23 74 69 98h49c-18 -7.33301 -33.833 -18.5 -47.5 -33.5s-20.5 -31.833 -20.5 -50.5c0 -17.333 5 -30.5 15 -39.5s23.333 -13.5 40 -13.5c17.333 0 33 3 47 9c4.66699 2 8.66699 3 12 3z" />
    <glyph glyph-name="aogonek" unicode="&#x105;" horiz-adv-x="467" 
d="M451 -125c6 0 11.1699 -2.16602 15.5029 -6.49902s6.5 -9.5 6.5 -15.5c0 -8 -3.66699 -14.333 -11 -19c-19.333 -11.333 -43.333 -17 -72 -17c-32 0 -57.167 7.33301 -75.5 22s-27.5 35.667 -27.5 63c0 42 23.667 75 71 99c-5.33301 6.66699 -8 14 -8 22v36
c-12 -22.667 -31 -40.334 -57 -53.001s-54.667 -19 -86 -19c-53.333 0 -95.5 12.5 -126.5 37.5s-46.5 60.167 -46.5 105.5c0 44 15.667 78.5 47 103.5s74 37.5 128 37.5h141v27c0 34 -10.5 60.833 -31.5 80.5s-49.833 29.5 -86.5 29.5c-47.333 0 -86 -17 -116 -51
c-8.66699 -9.33301 -17.334 -14 -26.001 -14c-8 0 -14.833 2.83301 -20.5 8.5s-8.5 12.5 -8.5 20.5c0 6 1.66699 11.667 5 17c33.333 52.667 88.666 79 165.999 79c57.333 0 101.666 -15.333 132.999 -46s47 -72 47 -124v-275c0 -12 -6.33301 -21.667 -19 -29
c-37.333 -22 -56 -48 -56 -78c0 -17.333 5 -30.5 15 -39.5s23.333 -13.5 40 -13.5c17.333 0 33 3 47 9c4.66699 2 8.66699 3 12 3zM213.003 45.001c37.333 0 69.5 11.333 96.5 34s40.5 54 40.5 94v42h-141c-34 0 -60.833 -7.16699 -80.5 -21.5s-29.5 -35.5 -29.5 -63.5
c0 -56.667 38 -85 114 -85z" />
    <glyph glyph-name="Cacute" unicode="&#x106;" horiz-adv-x="631" 
d="M356 -14c-208 0 -311.997 116.667 -311.997 350c0 116 27.167 203.5 81.5 262.5s131.166 88.5 230.499 88.5c47.333 0 90.666 -9.5 129.999 -28.5s71 -44.833 95 -77.5c4.66699 -6.66699 7 -13.667 7 -21c0 -9.33301 -3 -17 -9 -23s-13.667 -9 -23 -9
c-10.667 0 -19.334 4.33301 -26.001 13c-18 24.667 -42.5 44.834 -73.5 60.501s-64.5 23.5 -100.5 23.5c-78 0 -137.833 -24 -179.5 -72s-62.5 -120.333 -62.5 -217c0 -100.667 20.333 -173.834 61 -219.501s101 -68.5 181 -68.5c34.667 0 67.667 7 99 21
s56.333 34.333 75 61c6 8.66699 14.667 13 26 13c9.33301 0 17 -3.16699 23 -9.5s9 -13.833 9 -22.5c0 -6.66699 -2 -13 -6 -19c-22 -32 -53.667 -57.667 -95 -77s-85 -29 -131 -29zM299.003 724c-10.667 8.66699 -11.668 18.667 -3.00098 30l89 108
c10.667 13.333 23.334 13.333 38.001 0c14 -13.333 15 -26 3 -38l-97 -98c-10 -10 -20 -10.667 -30 -2z" />
    <glyph glyph-name="cacute" unicode="&#x107;" horiz-adv-x="441" 
d="M35 228c0 80.667 17.832 140.834 53.499 180.501s86.5 59.5 152.5 59.5c38.667 0 71 -7.33301 97 -22s45 -30.334 57 -47.001c4.66699 -6.66699 7 -13 7 -19c0 -8.66699 -2.83301 -15.667 -8.5 -21s-12.5 -8 -20.5 -8c-8.66699 0 -16.667 4 -24 12
c-27.333 31.333 -63.333 47 -108 47c-94 0 -141 -60.667 -141 -182c0 -122 47 -183 141 -183c38.667 0 77.334 14.333 116.001 43c6.66699 4.66699 13 7 19 7c8 0 14.833 -2.83301 20.5 -8.5s8.5 -12.5 8.5 -20.5c0 -8.66699 -4.33301 -17 -13 -25
c-44 -36 -94.333 -54 -151 -54c-66 0 -116.833 20 -152.5 60s-53.5 100.333 -53.5 181zM184.999 520c-10.667 8.66699 -11.668 18.667 -3.00098 30l89 108c10.667 13.333 23.334 13.333 38.001 0c14 -13.333 15 -26 3 -38l-97 -98c-10 -10 -20 -10.667 -30 -2z" />
    <glyph glyph-name="Ccircumflex" unicode="&#x108;" horiz-adv-x="631" 
d="M356 -14c-208 0 -311.997 116.667 -311.997 350c0 116 27.167 203.5 81.5 262.5s131.166 88.5 230.499 88.5c47.333 0 90.666 -9.5 129.999 -28.5s71 -44.833 95 -77.5c4.66699 -6.66699 7 -13.667 7 -21c0 -9.33301 -3 -17 -9 -23s-13.667 -9 -23 -9
c-10.667 0 -19.334 4.33301 -26.001 13c-18 24.667 -42.5 44.834 -73.5 60.501s-64.5 23.5 -100.5 23.5c-78 0 -137.833 -24 -179.5 -72s-62.5 -120.333 -62.5 -217c0 -100.667 20.333 -173.834 61 -219.501s101 -68.5 181 -68.5c34.667 0 67.667 7 99 21
s56.333 34.333 75 61c6 8.66699 14.667 13 26 13c9.33301 0 17 -3.16699 23 -9.5s9 -13.833 9 -22.5c0 -6.66699 -2 -13 -6 -19c-22 -32 -53.667 -57.667 -95 -77s-85 -29 -131 -29zM438.003 725l-80.9961 68.001l-81 -68c-4 -4 -9.33301 -6 -16 -6
s-12.334 2.33301 -17.001 7s-7 10.334 -7 17.001c0 7.33301 3 13.666 9 18.999l96 79c5.33301 4 10.666 6 15.999 6s10.666 -2 15.999 -6l96 -79c6 -4.66699 9 -11 9 -19c0 -6.66699 -2.33301 -12.334 -7 -17.001s-10.334 -7 -17.001 -7s-12 2 -16 6z" />
    <glyph glyph-name="ccircumflex" unicode="&#x109;" horiz-adv-x="441" 
d="M35 228c0 80.667 17.832 140.834 53.499 180.501s86.5 59.5 152.5 59.5c38.667 0 71 -7.33301 97 -22s45 -30.334 57 -47.001c4.66699 -6.66699 7 -13 7 -19c0 -8.66699 -2.83301 -15.667 -8.5 -21s-12.5 -8 -20.5 -8c-8.66699 0 -16.667 4 -24 12
c-27.333 31.333 -63.333 47 -108 47c-94 0 -141 -60.667 -141 -182c0 -122 47 -183 141 -183c38.667 0 77.334 14.333 116.001 43c6.66699 4.66699 13 7 19 7c8 0 14.833 -2.83301 20.5 -8.5s8.5 -12.5 8.5 -20.5c0 -8.66699 -4.33301 -17 -13 -25
c-44 -36 -94.333 -54 -151 -54c-66 0 -116.833 20 -152.5 60s-53.5 100.333 -53.5 181zM320.999 528l-80.9961 68l-81 -68c-4 -4 -9.33301 -6 -16 -6s-12.334 2.33301 -17.001 7s-7 10.334 -7 17.001c0 8 3 14.333 9 19l96 79c5.33301 4 10.666 6 15.999 6
s10.666 -2 15.999 -6l96 -79c6 -4.66699 9 -11 9 -19c0 -6.66699 -2.33301 -12.334 -7 -17.001s-10.334 -7 -17.001 -7s-12 2 -16 6z" />
    <glyph glyph-name="Cdotaccent" unicode="&#x10a;" horiz-adv-x="631" 
d="M356 -14c-208 0 -311.997 116.667 -311.997 350c0 116 27.167 203.5 81.5 262.5s131.166 88.5 230.499 88.5c47.333 0 90.666 -9.5 129.999 -28.5s71 -44.833 95 -77.5c4.66699 -6.66699 7 -13.667 7 -21c0 -9.33301 -3 -17 -9 -23s-13.667 -9 -23 -9
c-10.667 0 -19.334 4.33301 -26.001 13c-18 24.667 -42.5 44.834 -73.5 60.501s-64.5 23.5 -100.5 23.5c-78 0 -137.833 -24 -179.5 -72s-62.5 -120.333 -62.5 -217c0 -100.667 20.333 -173.834 61 -219.501s101 -68.5 181 -68.5c34.667 0 67.667 7 99 21
s56.333 34.333 75 61c6 8.66699 14.667 13 26 13c9.33301 0 17 -3.16699 23 -9.5s9 -13.833 9 -22.5c0 -6.66699 -2 -13 -6 -19c-22 -32 -53.667 -57.667 -95 -77s-85 -29 -131 -29zM353.003 736c-25.333 0 -38 13 -38 39c0 26.667 12.667 40 38 40s38 -13.333 38 -40
c0 -26 -12.667 -39 -38 -39z" />
    <glyph glyph-name="cdotaccent" unicode="&#x10b;" horiz-adv-x="441" 
d="M35 228c0 80.667 17.832 140.834 53.499 180.501s86.5 59.5 152.5 59.5c38.667 0 71 -7.33301 97 -22s45 -30.334 57 -47.001c4.66699 -6.66699 7 -13 7 -19c0 -8.66699 -2.83301 -15.667 -8.5 -21s-12.5 -8 -20.5 -8c-8.66699 0 -16.667 4 -24 12
c-27.333 31.333 -63.333 47 -108 47c-94 0 -141 -60.667 -141 -182c0 -122 47 -183 141 -183c38.667 0 77.334 14.333 116.001 43c6.66699 4.66699 13 7 19 7c8 0 14.833 -2.83301 20.5 -8.5s8.5 -12.5 8.5 -20.5c0 -8.66699 -4.33301 -17 -13 -25
c-44 -36 -94.333 -54 -151 -54c-66 0 -116.833 20 -152.5 60s-53.5 100.333 -53.5 181zM243.999 544c-25.333 0 -38 13 -38 39c0 26.667 12.667 40 38 40s38 -13.333 38 -40c0 -26 -12.667 -39 -38 -39z" />
    <glyph glyph-name="Ccaron" unicode="&#x10c;" horiz-adv-x="631" 
d="M356 -14c-208 0 -311.997 116.667 -311.997 350c0 116 27.167 203.5 81.5 262.5s131.166 88.5 230.499 88.5c47.333 0 90.666 -9.5 129.999 -28.5s71 -44.833 95 -77.5c4.66699 -6.66699 7 -13.667 7 -21c0 -9.33301 -3 -17 -9 -23s-13.667 -9 -23 -9
c-10.667 0 -19.334 4.33301 -26.001 13c-18 24.667 -42.5 44.834 -73.5 60.501s-64.5 23.5 -100.5 23.5c-78 0 -137.833 -24 -179.5 -72s-62.5 -120.333 -62.5 -217c0 -100.667 20.333 -173.834 61 -219.501s101 -68.5 181 -68.5c34.667 0 67.667 7 99 21
s56.333 34.333 75 61c6 8.66699 14.667 13 26 13c9.33301 0 17 -3.16699 23 -9.5s9 -13.833 9 -22.5c0 -6.66699 -2 -13 -6 -19c-22 -32 -53.667 -57.667 -95 -77s-85 -29 -131 -29zM352.003 773l80.9961 68c4 4 9.33301 6 16 6s12.334 -2.33301 17.001 -7
s7 -10.334 7 -17.001c0 -7.33301 -3 -13.666 -9 -18.999l-96 -79c-5.33301 -4 -10.666 -6 -15.999 -6s-10.666 2 -15.999 6l-96 79c-6 5.33301 -9 11.666 -9 18.999c0 6.66699 2.33301 12.334 7 17.001s10.334 7 17.001 7s12 -2 16 -6z" />
    <glyph glyph-name="ccaron" unicode="&#x10d;" horiz-adv-x="441" 
d="M35 228c0 80.667 17.832 140.834 53.499 180.501s86.5 59.5 152.5 59.5c38.667 0 71 -7.33301 97 -22s45 -30.334 57 -47.001c4.66699 -6.66699 7 -13 7 -19c0 -8.66699 -2.83301 -15.667 -8.5 -21s-12.5 -8 -20.5 -8c-8.66699 0 -16.667 4 -24 12
c-27.333 31.333 -63.333 47 -108 47c-94 0 -141 -60.667 -141 -182c0 -122 47 -183 141 -183c38.667 0 77.334 14.333 116.001 43c6.66699 4.66699 13 7 19 7c8 0 14.833 -2.83301 20.5 -8.5s8.5 -12.5 8.5 -20.5c0 -8.66699 -4.33301 -17 -13 -25
c-44 -36 -94.333 -54 -151 -54c-66 0 -116.833 20 -152.5 60s-53.5 100.333 -53.5 181zM247.999 553l80.9961 68c4 4 9.33301 6 16 6s12.334 -2.33301 17.001 -7s7 -10.334 7 -17.001c0 -7.33301 -3 -13.666 -9 -18.999l-96 -79c-5.33301 -4 -10.666 -6 -15.999 -6
s-10.666 2 -15.999 6l-96 79c-6 5.33301 -9 11.666 -9 18.999c0 6.66699 2.33301 12.334 7 17.001s10.334 7 17.001 7s12 -2 16 -6z" />
    <glyph glyph-name="Dcaron" unicode="&#x10e;" horiz-adv-x="608" 
d="M148 611v-549h107c78.667 0 138.334 20.833 179.001 62.5s61 112.167 61 211.5c0 98.667 -20.333 169.167 -61 211.5s-100.334 63.5 -179.001 63.5h-107zM114 673l141 0.000976562c100 0 176.5 -26.5 229.5 -79.5s79.5 -138.833 79.5 -257.5
s-26.5 -204.334 -79.5 -257.001s-129.5 -79 -229.5 -79h-141c-9.33301 -0 -17.333 3.33301 -24 10s-10 14.667 -10 24v605c0 9.33301 3.33301 17.333 10 24s14.667 10 24 10zM278 773.001l80.9961 68c4 4 9.33301 6 16 6s12.334 -2.33301 17.001 -7s7 -10.334 7 -17.001
c0 -7.33301 -3 -13.666 -9 -18.999l-96 -79c-5.33301 -4 -10.666 -6 -15.999 -6s-10.666 2 -15.999 6l-96 79c-6 5.33301 -9 11.666 -9 18.999c0 6.66699 2.33301 12.334 7 17.001s10.334 7 17.001 7s12 -2 16 -6z" />
    <glyph glyph-name="dcaron" unicode="&#x10f;" horiz-adv-x="536" 
d="M372 184v137.999c-1.33301 2.66699 -3 5.83398 -5 9.50098s-6.83301 10.667 -14.5 21s-16.167 19.333 -25.5 27s-21.833 14.667 -37.5 21s-32.167 9.5 -49.5 9.5c-94 0 -141 -60.667 -141 -182c0 -122 47 -183 141 -183c40 0 72 11.667 96 35s36 58 36 104zM236 467.999
c30 0 57 -6.33301 81 -19s42.333 -28 55 -46v277c0 9.33301 3 17 9 23s13.667 9 23 9s17 -3 23 -9s9 -13.667 9 -23v-496c0 -64 -17.833 -112.833 -53.5 -146.5s-83.167 -50.5 -142.5 -50.5c-66 0 -116.667 20 -152 60s-53 100.333 -53 181c0 160 67 240 201 240z
M566 646.999c0 -69.333 -24 -129 -72 -179c-4 -4 -8.33301 -6 -13 -6c-10 0 -15 5 -15 15c0 3.33301 1 6.33301 3 9c24.667 34 37 64.333 37 91c0 12.667 -6 26.667 -18 42s-18 30 -18 44c0 32 15.667 48 47 48c32.667 0 49 -21.333 49 -64z" />
    <glyph glyph-name="Dcroat" unicode="&#x110;" horiz-adv-x="609" 
d="M114 673l141 0.000976562c100.667 0 177.5 -26.5 230.5 -79.5s79.5 -138.833 79.5 -257.5s-26.5 -204.334 -79.5 -257.001s-129.833 -79 -230.5 -79h-141c-9.33301 -0 -17.333 3.33301 -24 10s-10 14.667 -10 24v283h-31c-8.66699 0 -16 3 -22 9s-9 13.333 -9 22
s3 16 9 22s13.333 9 22 9h31v260c0 9.33301 3.33301 17.333 10 24s14.667 10 24 10zM373 348.001c0 -8.66699 -3.16699 -16.001 -9.5 -22.001s-13.833 -9 -22.5 -9h-193v-253h107c79.333 0 139.5 20.5 180.5 61.5s61.5 111.167 61.5 210.5
c0 98.667 -20.667 168.834 -62 210.501s-101.333 62.5 -180 62.5h-107v-230h193c8.66699 0 16.167 -3 22.5 -9s9.5 -13.333 9.5 -22z" />
    <glyph glyph-name="dcroat" unicode="&#x111;" horiz-adv-x="501" 
d="M488 558c0 -7.33301 -2.66699 -13.666 -8 -18.999s-11.666 -8 -18.999 -8h-25v-347c0 -64 -17.833 -112.833 -53.5 -146.5s-83.167 -50.5 -142.5 -50.5c-66 0 -116.667 20 -152 60s-53 100.333 -53 181c0 160 67 240 201 240c30 0 57 -6.33301 81 -19s42.333 -28 55 -46
v128h-95c-7.33301 0 -13.666 2.66699 -18.999 8s-8 11.666 -8 18.999s2.66699 13.666 8 18.999s11.666 8 18.999 8h95v95c0 9.33301 3 17 9 23s13.667 9 23 9s17 -3 23 -9s9 -13.667 9 -23v-95h25c7.33301 0 13.666 -2.66699 18.999 -8s8 -11.666 8 -18.999zM372 184
v137.999c-1.33301 2.66699 -3 5.83398 -5 9.50098s-6.83301 10.667 -14.5 21s-16.167 19.333 -25.5 27s-21.833 14.667 -37.5 21s-32.167 9.5 -49.5 9.5c-94 0 -141 -60.667 -141 -182c0 -122 47 -183 141 -183c40 0 72 11.667 96 35s36 58 36 104z" />
    <glyph glyph-name="Emacron" unicode="&#x112;" 
d="M446 0h-332c-9.33301 -0 -17.333 3.33301 -24 10s-10 14.667 -10 24v605c0 9.33301 3.33301 17.333 10 24s14.667 10 24 10h321c8.66699 0 16 -3 22 -9s9 -13.333 9 -22s-3 -16 -9 -22s-13.333 -9 -22 -9h-287v-241h220c8.66699 0 16 -3 22 -9s9 -13.333 9 -22
s-3 -16 -9 -22s-13.333 -9 -22 -9h-220v-246h298c8.66699 0 16 -3 22 -9s9 -13.333 9 -22s-3 -16 -9 -22s-13.333 -9 -22 -9zM398 758c0 -6.66699 -2.33301 -12.5 -7 -17.5s-10.667 -7.5 -18 -7.5h-186c-7.33301 0 -13.333 2.5 -18 7.5s-7 10.833 -7 17.5
s2.33301 12.5 7 17.5s10.667 7.5 18 7.5h186c7.33301 0 13.333 -2.5 18 -7.5s7 -10.833 7 -17.5z" />
    <glyph glyph-name="emacron" unicode="&#x113;" horiz-adv-x="466" 
d="M35 228c0 76.667 18.001 135.832 54.001 177.499s86.667 62.5 152 62.5c30.667 0 57.667 -4.66699 81 -14s41.833 -21 55.5 -35s24.667 -30.167 33 -48.5s14 -35.333 17 -51s4.5 -31.167 4.5 -46.5c0 -10 -0.333008 -17.667 -1 -23s-2 -11.666 -4 -18.999
s-6 -12.833 -12 -16.5s-13.667 -5.5 -23 -5.5h-292c0 -50 13.5 -89.667 40.5 -119s63.833 -44 110.5 -44c42 0 82 14.333 120 43c6 4 12 6 18 6c8 0 14.833 -2.83301 20.5 -8.5s8.5 -12.5 8.5 -20.5s-3.66699 -15.667 -11 -23c-37.333 -37.333 -89.333 -56 -156 -56
c-68.667 0 -121.834 19.833 -159.501 59.5s-56.5 100.167 -56.5 181.5zM369.001 264.998c0 96.667 -42.667 145 -128 145c-42.667 0 -76 -12.833 -100 -38.5s-37.667 -61.167 -41 -106.5h269zM360.001 561.998c0 -6.66699 -2.33301 -12.5 -7 -17.5s-10.667 -7.5 -18 -7.5
h-186c-7.33301 0 -13.333 2.5 -18 7.5s-7 10.833 -7 17.5s2.33301 12.5 7 17.5s10.667 7.5 18 7.5h186c7.33301 0 13.333 -2.5 18 -7.5s7 -10.833 7 -17.5z" />
    <glyph glyph-name="Ebreve" unicode="&#x114;" 
d="M446 0h-332c-9.33301 -0 -17.333 3.33301 -24 10s-10 14.667 -10 24v605c0 9.33301 3.33301 17.333 10 24s14.667 10 24 10h321c8.66699 0 16 -3 22 -9s9 -13.333 9 -22s-3 -16 -9 -22s-13.333 -9 -22 -9h-287v-241h220c8.66699 0 16 -3 22 -9s9 -13.333 9 -22
s-3 -16 -9 -22s-13.333 -9 -22 -9h-220v-246h298c8.66699 0 16 -3 22 -9s9 -13.333 9 -22s-3 -16 -9 -22s-13.333 -9 -22 -9zM279 730c-32.667 0 -59.6709 8.33301 -81.0039 25s-32 42 -32 76c0 6.66699 2.33301 12.334 7 17.001s10.334 7 17.001 7
s12.334 -2.33301 17.001 -7s7 -10.334 7 -17.001c0 -36.667 21.667 -55 65 -55s65 18.333 65 55c0 6.66699 2.33301 12.334 7 17.001s10.334 7 17.001 7s12.334 -2.33301 17.001 -7s7 -10.334 7 -17.001c0 -34 -10.667 -59.333 -32 -76s-48.333 -25 -81 -25z" />
    <glyph glyph-name="ebreve" unicode="&#x115;" horiz-adv-x="466" 
d="M35 228c0 76.667 18.001 135.832 54.001 177.499s86.667 62.5 152 62.5c30.667 0 57.667 -4.66699 81 -14s41.833 -21 55.5 -35s24.667 -30.167 33 -48.5s14 -35.333 17 -51s4.5 -31.167 4.5 -46.5c0 -10 -0.333008 -17.667 -1 -23s-2 -11.666 -4 -18.999
s-6 -12.833 -12 -16.5s-13.667 -5.5 -23 -5.5h-292c0 -50 13.5 -89.667 40.5 -119s63.833 -44 110.5 -44c42 0 82 14.333 120 43c6 4 12 6 18 6c8 0 14.833 -2.83301 20.5 -8.5s8.5 -12.5 8.5 -20.5s-3.66699 -15.667 -11 -23c-37.333 -37.333 -89.333 -56 -156 -56
c-68.667 0 -121.834 19.833 -159.501 59.5s-56.5 100.167 -56.5 181.5zM369.001 264.998c0 96.667 -42.667 145 -128 145c-42.667 0 -76 -12.833 -100 -38.5s-37.667 -61.167 -41 -106.5h269zM242.001 528.998c-32.667 0 -59.6709 8.33301 -81.0039 25s-32 42 -32 76
c0 6.66699 2.33301 12.334 7 17.001s10.334 7 17.001 7s12.334 -2.33301 17.001 -7s7 -10.334 7 -17.001c0 -36.667 21.667 -55 65 -55s65 18.333 65 55c0 6.66699 2.33301 12.334 7 17.001s10.334 7 17.001 7s12.334 -2.33301 17.001 -7s7 -10.334 7 -17.001
c0 -34 -10.667 -59.333 -32 -76s-48.333 -25 -81 -25z" />
    <glyph glyph-name="Edotaccent" unicode="&#x116;" 
d="M446 0h-332c-9.33301 -0 -17.333 3.33301 -24 10s-10 14.667 -10 24v605c0 9.33301 3.33301 17.333 10 24s14.667 10 24 10h321c8.66699 0 16 -3 22 -9s9 -13.333 9 -22s-3 -16 -9 -22s-13.333 -9 -22 -9h-287v-241h220c8.66699 0 16 -3 22 -9s9 -13.333 9 -22
s-3 -16 -9 -22s-13.333 -9 -22 -9h-220v-246h298c8.66699 0 16 -3 22 -9s9 -13.333 9 -22s-3 -16 -9 -22s-13.333 -9 -22 -9zM282 736c-25.333 0 -38 13 -38 39c0 26.667 12.667 40 38 40s38 -13.333 38 -40c0 -26 -12.667 -39 -38 -39z" />
    <glyph glyph-name="edotaccent" unicode="&#x117;" horiz-adv-x="466" 
d="M35 228c0 76.667 18.001 135.832 54.001 177.499s86.667 62.5 152 62.5c30.667 0 57.667 -4.66699 81 -14s41.833 -21 55.5 -35s24.667 -30.167 33 -48.5s14 -35.333 17 -51s4.5 -31.167 4.5 -46.5c0 -10 -0.333008 -17.667 -1 -23s-2 -11.666 -4 -18.999
s-6 -12.833 -12 -16.5s-13.667 -5.5 -23 -5.5h-292c0 -50 13.5 -89.667 40.5 -119s63.833 -44 110.5 -44c42 0 82 14.333 120 43c6 4 12 6 18 6c8 0 14.833 -2.83301 20.5 -8.5s8.5 -12.5 8.5 -20.5s-3.66699 -15.667 -11 -23c-37.333 -37.333 -89.333 -56 -156 -56
c-68.667 0 -121.834 19.833 -159.501 59.5s-56.5 100.167 -56.5 181.5zM369.001 264.998c0 96.667 -42.667 145 -128 145c-42.667 0 -76 -12.833 -100 -38.5s-37.667 -61.167 -41 -106.5h269zM244.001 543.998c-25.333 0 -38 13 -38 39c0 26.667 12.667 40 38 40
s38 -13.333 38 -40c0 -26 -12.667 -39 -38 -39z" />
    <glyph glyph-name="Eogonek" unicode="&#x118;" 
d="M496 -125c6 0 11.167 -2.16797 15.5 -6.50098s6.5 -9.5 6.5 -15.5c0 -8 -3.66699 -14.333 -11 -19c-19.333 -11.333 -43.333 -17 -72 -17c-32 0 -57.167 7.33301 -75.5 22s-27.5 35.667 -27.5 63c0 42.667 23.667 75.334 71 98.001h-289
c-9.33301 -0 -17.333 3.33301 -24 10s-10 14.667 -10 24v605c0 9.33301 3.33301 17.333 10 24s14.667 10 24 10h321c8.66699 0 16 -3 22 -9s9 -13.333 9 -22s-3 -16 -9 -22s-13.333 -9 -22 -9h-287v-241h220c8.66699 0 16 -3 22 -9s9 -13.333 9 -22s-3 -16 -9 -22
s-13.333 -9 -22 -9h-220v-246h298c8.66699 0 16 -3 22 -9s9 -13.333 9 -22c0 -13.333 -8.66699 -24 -26 -32c-46 -21.333 -69 -49 -69 -83c0 -17.333 5 -30.5 15 -39.5s23.333 -13.5 40 -13.5c17.333 0 33 3 47 9c5.33301 2 9.33301 3 12 3z" />
    <glyph glyph-name="eogonek" unicode="&#x119;" horiz-adv-x="466" 
d="M379 -125c6 0 11.168 -2.16895 15.501 -6.50195s6.5 -9.5 6.5 -15.5c0 -8 -3.66699 -14.333 -11 -19c-19.333 -11.333 -43.333 -17 -72 -17c-32 0 -57.167 7.33301 -75.5 22s-27.5 35.667 -27.5 63c0 34 16 62.333 48 85h-12c-68.667 0 -121.834 19.833 -159.501 59.5
s-56.5 100.167 -56.5 181.5c0 76.667 18 135.834 54 177.501s86.667 62.5 152 62.5c30.667 0 57.667 -4.66699 81 -14s41.833 -21 55.5 -35s24.667 -30.167 33 -48.5s14 -35.333 17 -51s4.5 -31.167 4.5 -46.5c0 -10 -0.333008 -17.667 -1 -23s-2 -11.666 -4 -18.999
s-6 -12.833 -12 -16.5s-13.667 -5.5 -23 -5.5h-292c0 -50 13.5 -89.667 40.5 -119s63.833 -44 110.5 -44c42 0 82 14.333 120 43c6 4 12 6 18 6c8 0 14.833 -2.83301 20.5 -8.5s8.5 -12.5 8.5 -20.5s-3.66699 -15.667 -11 -23c-9.33301 -9.33301 -26.833 -20 -52.5 -32
s-47 -25.167 -64 -39.5s-25.5 -32.833 -25.5 -55.5c0 -17.333 5 -30.5 15 -39.5s23.333 -13.5 40 -13.5c17.333 0 33 3 47 9c4.66699 2 8.66699 3 12 3zM369.001 264.998c0 96.667 -42.667 145 -128 145c-42.667 0 -76 -12.833 -100 -38.5s-37.667 -61.167 -41 -106.5h269z
" />
    <glyph glyph-name="Ecaron" unicode="&#x11a;" 
d="M446 0h-332c-9.33301 -0 -17.333 3.33301 -24 10s-10 14.667 -10 24v605c0 9.33301 3.33301 17.333 10 24s14.667 10 24 10h321c8.66699 0 16 -3 22 -9s9 -13.333 9 -22s-3 -16 -9 -22s-13.333 -9 -22 -9h-287v-241h220c8.66699 0 16 -3 22 -9s9 -13.333 9 -22
s-3 -16 -9 -22s-13.333 -9 -22 -9h-220v-246h298c8.66699 0 16 -3 22 -9s9 -13.333 9 -22s-3 -16 -9 -22s-13.333 -9 -22 -9zM289 773l80.9961 68c4 4 9.33301 6 16 6s12.334 -2.33301 17.001 -7s7 -10.334 7 -17.001c0 -7.33301 -3 -13.666 -9 -18.999l-96 -79
c-5.33301 -4 -10.666 -6 -15.999 -6s-10.666 2 -15.999 6l-96 79c-6 5.33301 -9 11.666 -9 18.999c0 6.66699 2.33301 12.334 7 17.001s10.334 7 17.001 7s12 -2 16 -6z" />
    <glyph glyph-name="ecaron" unicode="&#x11b;" horiz-adv-x="466" 
d="M35 228c0 76.667 18.001 135.832 54.001 177.499s86.667 62.5 152 62.5c30.667 0 57.667 -4.66699 81 -14s41.833 -21 55.5 -35s24.667 -30.167 33 -48.5s14 -35.333 17 -51s4.5 -31.167 4.5 -46.5c0 -10 -0.333008 -17.667 -1 -23s-2 -11.666 -4 -18.999
s-6 -12.833 -12 -16.5s-13.667 -5.5 -23 -5.5h-292c0 -50 13.5 -89.667 40.5 -119s63.833 -44 110.5 -44c42 0 82 14.333 120 43c6 4 12 6 18 6c8 0 14.833 -2.83301 20.5 -8.5s8.5 -12.5 8.5 -20.5s-3.66699 -15.667 -11 -23c-37.333 -37.333 -89.333 -56 -156 -56
c-68.667 0 -121.834 19.833 -159.501 59.5s-56.5 100.167 -56.5 181.5zM369.001 264.998c0 96.667 -42.667 145 -128 145c-42.667 0 -76 -12.833 -100 -38.5s-37.667 -61.167 -41 -106.5h269zM242.001 552.998l80.9961 68c4 4 9.33301 6 16 6s12.334 -2.33301 17.001 -7
s7 -10.334 7 -17.001c0 -7.33301 -3 -13.666 -9 -18.999l-96 -79c-5.33301 -4 -10.666 -6 -15.999 -6s-10.666 2 -15.999 6l-96 79c-6 5.33301 -9 11.666 -9 18.999c0 6.66699 2.33301 12.334 7 17.001s10.334 7 17.001 7s12 -2 16 -6z" />
    <glyph glyph-name="Gcircumflex" unicode="&#x11c;" horiz-adv-x="663" 
d="M356 48c81.333 0 143.338 26.667 186.005 80v145h-167c-8.66699 0 -16 3 -22 9s-9 13.333 -9 22s3 16 9 22s13.333 9 22 9h202c8 0 15.167 -3 21.5 -9s9.5 -13.333 9.5 -22v-175c0 -11.333 -4.33301 -22.333 -13 -33c-62.667 -73.333 -142.334 -110 -239.001 -110
c-208 0 -312 116.667 -312 350c0 116 27.167 203.5 81.5 262.5s131.166 88.5 230.499 88.5c47.333 0 90.666 -9.5 129.999 -28.5s71 -44.833 95 -77.5c4.66699 -6.66699 7 -13.667 7 -21c0 -9.33301 -3 -17 -9 -23s-13.667 -9 -23 -9c-10.667 0 -19.334 4.33301 -26.001 13
c-18 24.667 -42.333 44.834 -73 60.501s-64.334 23.5 -101.001 23.5c-78 0 -137.833 -24 -179.5 -72s-62.5 -120.333 -62.5 -217c0 -100.667 20.333 -173.834 61 -219.501s101 -68.5 181 -68.5zM438.005 725l-80.9961 68.001l-81 -68c-4 -4 -9.33301 -6 -16 -6
s-12.334 2.33301 -17.001 7s-7 10.334 -7 17.001c0 7.33301 3 13.666 9 18.999l96 79c5.33301 4 10.666 6 15.999 6s10.666 -2 15.999 -6l96 -79c6 -4.66699 9 -11 9 -19c0 -6.66699 -2.33301 -12.334 -7 -17.001s-10.334 -7 -17.001 -7s-12 2 -16 6z" />
    <glyph glyph-name="gcircumflex" unicode="&#x11d;" horiz-adv-x="478" 
d="M229 468c42 0 77.6689 -8.33496 107.002 -25.002c9.33301 17.333 20.666 30.666 33.999 39.999s31.666 14 54.999 14c8 0 14.833 -2.83301 20.5 -8.5s8.5 -12.5 8.5 -20.5s-2.83301 -14.833 -8.5 -20.5s-12.5 -8.5 -20.5 -8.5c-22.667 0 -38.667 -10.333 -48 -31
c24 -29.333 36 -65.333 36 -108c0 -51.333 -16.333 -92.166 -49 -122.499s-77.667 -45.5 -135 -45.5c-42.667 0 -78.667 8.33301 -108 25c-12 -10 -18 -22 -18 -36c0 -28 24.667 -42 74 -42h103c51.333 0 93.333 -11.5 126 -34.5s49 -56.833 49 -101.5
c0 -49.333 -19.667 -85.666 -59 -108.999s-91.333 -35 -156 -35c-38 0 -72 3.83301 -102 11.5s-56 22.334 -78 44.001s-33 49.834 -33 84.501c0 46.667 25.333 80.334 76 101.001c-18.667 6 -33.667 16.167 -45 30.5s-17 31.166 -17 50.499c0 28.667 13.333 52 40 70
c-24 30 -36 66.333 -36 109c0 51.333 16.333 92.166 49 122.499s77.667 45.5 135 45.5zM229.002 189.998c38 0 67.333 10 88 30s31 46.667 31 80s-10.333 60 -31 80s-50 30 -88 30s-67.333 -10 -88 -30s-31 -46.667 -31 -80s10.333 -60 31 -80s50 -30 88 -30z
M390.002 -57.002c0 50.667 -36.667 76.001 -110 76.001h-104c-56 -9.33301 -84 -36 -84 -80c0 -28.667 14 -49.834 42 -63.501s63.667 -20.5 107 -20.5s79 7 107 21s42 36.333 42 67zM311.002 527.999l-80.9961 68l-81 -68c-4 -4 -9.33301 -6 -16 -6
s-12.334 2.33301 -17.001 7s-7 10.334 -7 17.001c0 8 3 14.333 9 19l96 79c5.33301 4 10.666 6 15.999 6s10.666 -2 15.999 -6l96 -79c6 -4.66699 9 -11 9 -19c0 -6.66699 -2.33301 -12.334 -7 -17.001s-10.334 -7 -17.001 -7s-12 2 -16 6z" />
    <glyph glyph-name="Gbreve" unicode="&#x11e;" horiz-adv-x="663" 
d="M356 48c81.333 0 143.338 26.667 186.005 80v145h-167c-8.66699 0 -16 3 -22 9s-9 13.333 -9 22s3 16 9 22s13.333 9 22 9h202c8 0 15.167 -3 21.5 -9s9.5 -13.333 9.5 -22v-175c0 -11.333 -4.33301 -22.333 -13 -33c-62.667 -73.333 -142.334 -110 -239.001 -110
c-208 0 -312 116.667 -312 350c0 116 27.167 203.5 81.5 262.5s131.166 88.5 230.499 88.5c47.333 0 90.666 -9.5 129.999 -28.5s71 -44.833 95 -77.5c4.66699 -6.66699 7 -13.667 7 -21c0 -9.33301 -3 -17 -9 -23s-13.667 -9 -23 -9c-10.667 0 -19.334 4.33301 -26.001 13
c-18 24.667 -42.333 44.834 -73 60.501s-64.334 23.5 -101.001 23.5c-78 0 -137.833 -24 -179.5 -72s-62.5 -120.333 -62.5 -217c0 -100.667 20.333 -173.834 61 -219.501s101 -68.5 181 -68.5zM348.005 730c-32.667 0 -59.6709 8.33301 -81.0039 25s-32 42 -32 76
c0 6.66699 2.33301 12.334 7 17.001s10.334 7 17.001 7s12.334 -2.33301 17.001 -7s7 -10.334 7 -17.001c0 -36.667 21.667 -55 65 -55s65 18.333 65 55c0 6.66699 2.33301 12.334 7 17.001s10.334 7 17.001 7s12.334 -2.33301 17.001 -7s7 -10.334 7 -17.001
c0 -34 -10.667 -59.333 -32 -76s-48.333 -25 -81 -25z" />
    <glyph glyph-name="gbreve" unicode="&#x11f;" horiz-adv-x="478" 
d="M229 468c42 0 77.6689 -8.33496 107.002 -25.002c9.33301 17.333 20.666 30.666 33.999 39.999s31.666 14 54.999 14c8 0 14.833 -2.83301 20.5 -8.5s8.5 -12.5 8.5 -20.5s-2.83301 -14.833 -8.5 -20.5s-12.5 -8.5 -20.5 -8.5c-22.667 0 -38.667 -10.333 -48 -31
c24 -29.333 36 -65.333 36 -108c0 -51.333 -16.333 -92.166 -49 -122.499s-77.667 -45.5 -135 -45.5c-42.667 0 -78.667 8.33301 -108 25c-12 -10 -18 -22 -18 -36c0 -28 24.667 -42 74 -42h103c51.333 0 93.333 -11.5 126 -34.5s49 -56.833 49 -101.5
c0 -49.333 -19.667 -85.666 -59 -108.999s-91.333 -35 -156 -35c-38 0 -72 3.83301 -102 11.5s-56 22.334 -78 44.001s-33 49.834 -33 84.501c0 46.667 25.333 80.334 76 101.001c-18.667 6 -33.667 16.167 -45 30.5s-17 31.166 -17 50.499c0 28.667 13.333 52 40 70
c-24 30 -36 66.333 -36 109c0 51.333 16.333 92.166 49 122.499s77.667 45.5 135 45.5zM229.002 189.998c38 0 67.333 10 88 30s31 46.667 31 80s-10.333 60 -31 80s-50 30 -88 30s-67.333 -10 -88 -30s-31 -46.667 -31 -80s10.333 -60 31 -80s50 -30 88 -30z
M390.002 -57.002c0 50.667 -36.667 76.001 -110 76.001h-104c-56 -9.33301 -84 -36 -84 -80c0 -28.667 14 -49.834 42 -63.501s63.667 -20.5 107 -20.5s79 7 107 21s42 36.333 42 67zM230.002 528.999c-32.667 0 -59.6709 8.33301 -81.0039 25s-32 42 -32 76
c0 6.66699 2.33301 12.334 7 17.001s10.334 7 17.001 7s12.334 -2.33301 17.001 -7s7 -10.334 7 -17.001c0 -36.667 21.667 -55 65 -55s65 18.333 65 55c0 6.66699 2.33301 12.334 7 17.001s10.334 7 17.001 7s12.334 -2.33301 17.001 -7s7 -10.334 7 -17.001
c0 -34 -10.667 -59.333 -32 -76s-48.333 -25 -81 -25z" />
    <glyph glyph-name="Gdotaccent" unicode="&#x120;" horiz-adv-x="663" 
d="M356 48c81.333 0 143.338 26.667 186.005 80v145h-167c-8.66699 0 -16 3 -22 9s-9 13.333 -9 22s3 16 9 22s13.333 9 22 9h202c8 0 15.167 -3 21.5 -9s9.5 -13.333 9.5 -22v-175c0 -11.333 -4.33301 -22.333 -13 -33c-62.667 -73.333 -142.334 -110 -239.001 -110
c-208 0 -312 116.667 -312 350c0 116 27.167 203.5 81.5 262.5s131.166 88.5 230.499 88.5c47.333 0 90.666 -9.5 129.999 -28.5s71 -44.833 95 -77.5c4.66699 -6.66699 7 -13.667 7 -21c0 -9.33301 -3 -17 -9 -23s-13.667 -9 -23 -9c-10.667 0 -19.334 4.33301 -26.001 13
c-18 24.667 -42.333 44.834 -73 60.501s-64.334 23.5 -101.001 23.5c-78 0 -137.833 -24 -179.5 -72s-62.5 -120.333 -62.5 -217c0 -100.667 20.333 -173.834 61 -219.501s101 -68.5 181 -68.5zM348.005 736c-25.333 0 -38 13 -38 39c0 26.667 12.667 40 38 40
s38 -13.333 38 -40c0 -26 -12.667 -39 -38 -39z" />
    <glyph glyph-name="gdotaccent" unicode="&#x121;" horiz-adv-x="478" 
d="M229 468c42 0 77.6689 -8.33496 107.002 -25.002c9.33301 17.333 20.666 30.666 33.999 39.999s31.666 14 54.999 14c8 0 14.833 -2.83301 20.5 -8.5s8.5 -12.5 8.5 -20.5s-2.83301 -14.833 -8.5 -20.5s-12.5 -8.5 -20.5 -8.5c-22.667 0 -38.667 -10.333 -48 -31
c24 -29.333 36 -65.333 36 -108c0 -51.333 -16.333 -92.166 -49 -122.499s-77.667 -45.5 -135 -45.5c-42.667 0 -78.667 8.33301 -108 25c-12 -10 -18 -22 -18 -36c0 -28 24.667 -42 74 -42h103c51.333 0 93.333 -11.5 126 -34.5s49 -56.833 49 -101.5
c0 -49.333 -19.667 -85.666 -59 -108.999s-91.333 -35 -156 -35c-38 0 -72 3.83301 -102 11.5s-56 22.334 -78 44.001s-33 49.834 -33 84.501c0 46.667 25.333 80.334 76 101.001c-18.667 6 -33.667 16.167 -45 30.5s-17 31.166 -17 50.499c0 28.667 13.333 52 40 70
c-24 30 -36 66.333 -36 109c0 51.333 16.333 92.166 49 122.499s77.667 45.5 135 45.5zM229.002 189.998c38 0 67.333 10 88 30s31 46.667 31 80s-10.333 60 -31 80s-50 30 -88 30s-67.333 -10 -88 -30s-31 -46.667 -31 -80s10.333 -60 31 -80s50 -30 88 -30z
M390.002 -57.002c0 50.667 -36.667 76.001 -110 76.001h-104c-56 -9.33301 -84 -36 -84 -80c0 -28.667 14 -49.834 42 -63.501s63.667 -20.5 107 -20.5s79 7 107 21s42 36.333 42 67zM232.002 543.999c-25.333 0 -38 13 -38 39c0 26.667 12.667 40 38 40s38 -13.333 38 -40
c0 -26 -12.667 -39 -38 -39z" />
    <glyph glyph-name="Gcommaaccent" unicode="&#x122;" horiz-adv-x="663" 
d="M356 48c81.333 0 143.338 26.667 186.005 80v145h-167c-8.66699 0 -16 3 -22 9s-9 13.333 -9 22s3 16 9 22s13.333 9 22 9h202c8 0 15.167 -3 21.5 -9s9.5 -13.333 9.5 -22v-175c0 -11.333 -4.33301 -22.333 -13 -33c-62.667 -73.333 -142.334 -110 -239.001 -110
c-208 0 -312 116.667 -312 350c0 116 27.167 203.5 81.5 262.5s131.166 88.5 230.499 88.5c47.333 0 90.666 -9.5 129.999 -28.5s71 -44.833 95 -77.5c4.66699 -6.66699 7 -13.667 7 -21c0 -9.33301 -3 -17 -9 -23s-13.667 -9 -23 -9c-10.667 0 -19.334 4.33301 -26.001 13
c-18 24.667 -42.333 44.834 -73 60.501s-64.334 23.5 -101.001 23.5c-78 0 -137.833 -24 -179.5 -72s-62.5 -120.333 -62.5 -217c0 -100.667 20.333 -173.834 61 -219.501s101 -68.5 181 -68.5zM404.005 -100c0 -32 -4.5 -59.1689 -13.5 -81.502
s-24.167 -44.166 -45.5 -65.499c-3.33301 -3.33301 -7 -5 -11 -5c-8.66699 0 -13 4.33301 -13 13c0 3.33301 1.33301 6.33301 4 9c19.333 19.333 29 41 29 65c0 11.333 -6 24.333 -18 39s-18 28.334 -18 41.001c0 28.667 14 43 42 43c29.333 0 44 -19.333 44 -58z" />
    <glyph glyph-name="gcommaaccent" unicode="&#x123;" horiz-adv-x="478" 
d="M191 566c0 64 21.333 118.333 64 163c4 4 8.33301 6 13 6c10 0 15 -5 15 -15c0 -2.66699 -1 -5.66699 -3 -9c-19.333 -26.667 -29 -50 -29 -70c0 -12.667 6 -27.5 18 -44.5s18 -32.5 18 -46.5c0 -32 -15.667 -48 -47 -48c-32.667 0 -49 21.333 -49 64zM229 468
c42 0 77.6689 -8.33496 107.002 -25.002c9.33301 17.333 20.666 30.666 33.999 39.999s31.666 14 54.999 14c8 0 14.833 -2.83301 20.5 -8.5s8.5 -12.5 8.5 -20.5s-2.83301 -14.833 -8.5 -20.5s-12.5 -8.5 -20.5 -8.5c-22.667 0 -38.667 -10.333 -48 -31
c24 -29.333 36 -65.333 36 -108c0 -51.333 -16.333 -92.166 -49 -122.499s-77.667 -45.5 -135 -45.5c-42.667 0 -78.667 8.33301 -108 25c-12 -10 -18 -22 -18 -36c0 -28 24.667 -42 74 -42h103c51.333 0 93.333 -11.5 126 -34.5s49 -56.833 49 -101.5
c0 -49.333 -19.667 -85.666 -59 -108.999s-91.333 -35 -156 -35c-38 0 -72 3.83301 -102 11.5s-56 22.334 -78 44.001s-33 49.834 -33 84.501c0 46.667 25.333 80.334 76 101.001c-18.667 6 -33.667 16.167 -45 30.5s-17 31.166 -17 50.499c0 28.667 13.333 52 40 70
c-24 30 -36 66.333 -36 109c0 51.333 16.333 92.166 49 122.499s77.667 45.5 135 45.5zM229.002 189.998c38 0 67.333 10 88 30s31 46.667 31 80s-10.333 60 -31 80s-50 30 -88 30s-67.333 -10 -88 -30s-31 -46.667 -31 -80s10.333 -60 31 -80s50 -30 88 -30z
M390.002 -57.002c0 50.667 -36.667 76.001 -110 76.001h-104c-56 -9.33301 -84 -36 -84 -80c0 -28.667 14 -49.834 42 -63.501s63.667 -20.5 107 -20.5s79 7 107 21s42 36.333 42 67z" />
    <glyph glyph-name="Hcircumflex" unicode="&#x124;" horiz-adv-x="644" 
d="M496 314h-348v-288c0 -9.33301 -3.33301 -17.333 -10 -24s-14.667 -10 -24 -10s-17.333 3.33301 -24 10s-10 14.667 -10 24v621c0 9.33301 3.33301 17.333 10 24s14.667 10 24 10s17.333 -3.33301 24 -10s10 -14.667 10 -24v-271h348v271c0 9.33301 3.33301 17.333 10 24
s14.667 10 24 10s17.333 -3.33301 24 -10s10 -14.667 10 -24v-621c0 -9.33301 -3.33301 -17.333 -10 -24s-14.667 -10 -24 -10s-17.333 3.33301 -24 10s-10 14.667 -10 24v288zM405 725l-80.9961 68.001l-81 -68c-4 -4 -9.33301 -6 -16 -6s-12.334 2.33301 -17.001 7
s-7 10.334 -7 17.001c0 7.33301 3 13.666 9 18.999l96 79c5.33301 4 10.666 6 15.999 6s10.666 -2 15.999 -6l96 -79c6 -4.66699 9 -11 9 -19c0 -6.66699 -2.33301 -12.334 -7 -17.001s-10.334 -7 -17.001 -7s-12 2 -16 6z" />
    <glyph glyph-name="hcircumflex" unicode="&#x125;" horiz-adv-x="501" 
d="M262 468c122.667 0 183.999 -59 183.999 -177v-267c0 -9.33301 -3 -17 -9 -23s-13.667 -9 -23 -9s-17 3 -23 9s-9 13.667 -9 23v254c0 43.333 -8.66699 76.333 -26 99s-48.666 34 -93.999 34c-88.667 0 -133 -46.667 -133 -140v-247c0 -9.33301 -3.16699 -17 -9.5 -23
s-13.833 -9 -22.5 -9s-16.167 3 -22.5 9s-9.5 13.667 -9.5 23v656c0 9.33301 3.16699 17 9.5 23s13.833 9 22.5 9s16.167 -3 22.5 -9s9.5 -13.667 9.5 -23v-282c10 20 26.833 36.667 50.5 50s51.167 20 82.5 20zM177.999 725l-80.9961 68.001l-81 -68
c-4 -4 -9.33301 -6 -16 -6s-12.334 2.33301 -17.001 7s-7 10.334 -7 17.001c0 7.33301 3 13.666 9 18.999l96 79c5.33301 4 10.666 6 15.999 6s10.666 -2 15.999 -6l96 -79c6 -4.66699 9 -11 9 -19c0 -6.66699 -2.33301 -12.334 -7 -17.001s-10.334 -7 -17.001 -7
s-12 2 -16 6z" />
    <glyph glyph-name="Hbar" unicode="&#x126;" horiz-adv-x="644" 
d="M496 314h-348v-288c0 -9.33301 -3.33301 -17.333 -10 -24s-14.667 -10 -24 -10s-17.333 3.33301 -24 10s-10 14.667 -10 24v437h-30c-6.66699 0 -12.5 2.5 -17.5 7.5s-7.5 10.833 -7.5 17.5s2.5 12.5 7.5 17.5s10.833 7.5 17.5 7.5h30v134
c0 9.33301 3.33301 17.333 10 24s14.667 10 24 10s17.333 -3.33301 24 -10s10 -14.667 10 -24v-134h348v134c0 9.33301 3.33301 17.333 10 24s14.667 10 24 10s17.333 -3.33301 24 -10s10 -14.667 10 -24v-134h30c6.66699 0 12.5 -2.5 17.5 -7.5s7.5 -10.833 7.5 -17.5
s-2.5 -12.5 -7.5 -17.5s-10.833 -7.5 -17.5 -7.5h-30v-437c0 -9.33301 -3.33301 -17.333 -10 -24s-14.667 -10 -24 -10s-17.333 3.33301 -24 10s-10 14.667 -10 24v288zM148 376h348v87h-348v-87z" />
    <glyph glyph-name="hbar" unicode="&#x127;" horiz-adv-x="501" 
d="M262 468c122.667 0 183.999 -59 183.999 -177v-267c0 -9.33301 -3 -17 -9 -23s-13.667 -9 -23 -9s-17 3 -23 9s-9 13.667 -9 23v254c0 43.333 -8.66699 76.333 -26 99s-48.666 34 -93.999 34c-88.667 0 -133 -46.667 -133 -140v-247c0 -9.33301 -3.16699 -17 -9.5 -23
s-13.833 -9 -22.5 -9s-16.167 3 -22.5 9s-9.5 13.667 -9.5 23v537h-29c-6.66699 0 -12.5 2.5 -17.5 7.5s-7.5 10.833 -7.5 17.5s2.5 12.5 7.5 17.5s10.833 7.5 17.5 7.5h29v69c0 9.33301 3.16699 17 9.5 23s13.833 9 22.5 9s16.167 -3 22.5 -9s9.5 -13.667 9.5 -23v-69h111
c6.66699 0 12.5 -2.5 17.5 -7.5s7.5 -10.833 7.5 -17.5s-2.5 -12.5 -7.5 -17.5s-10.833 -7.5 -17.5 -7.5h-111v-163c10 20 26.833 36.667 50.5 50s51.167 20 82.5 20z" />
    <glyph glyph-name="Itilde" unicode="&#x128;" horiz-adv-x="228" 
d="M148 647v-621c0 -9.33301 -3.33301 -17.333 -10 -24s-14.667 -10 -24 -10s-17.333 3.33301 -24 10s-10 14.667 -10 24v621c0 9.33301 3.33301 17.333 10 24s14.667 10 24 10s17.333 -3.33301 24 -10s10 -14.667 10 -24zM56 819c17.333 0 38 -6.5 62 -19.5
s42.667 -19.5 56 -19.5c16.667 0 32 9.33301 46 28c5.33301 7.33301 12 11 20 11c6.66699 0 12.334 -2.33301 17.001 -7s7 -10.334 7 -17.001c0 -4 -1 -8 -3 -12c-17.333 -34.667 -46.333 -52 -87 -52c-17.333 0 -38 6.5 -62 19.5s-42.667 19.5 -56 19.5
c-16.667 0 -32 -9.33301 -46 -28c-5.33301 -7.33301 -12 -11 -20 -11c-6.66699 0 -12.334 2.33301 -17.001 7s-7 10.334 -7 17.001c0 4 1 8 3 12c17.333 34.667 46.333 52 87 52z" />
    <glyph glyph-name="itilde" unicode="&#x129;" horiz-adv-x="193" 
d="M36 617c17.333 0 38 -6.5 62 -19.5s42.667 -19.5 56 -19.5c16.667 0 32 9.33301 46 28c5.33301 7.33301 12 11 20 11c6.66699 0 12.334 -2.33301 17.001 -7s7 -10.334 7 -17.001c0 -4 -1 -8 -3 -12c-17.333 -34.667 -46.333 -52 -87 -52c-17.333 0 -38 6.5 -62 19.5
s-42.667 19.5 -56 19.5c-16.667 0 -32 -9.33301 -46 -28c-5.33301 -7.33301 -12 -11 -20 -11c-6.66699 0 -12.334 2.33301 -17.001 7s-7 10.334 -7 17.001c0 4 1 8 3 12c17.333 34.667 46.333 52 87 52zM128 430v-406c0 -9.33301 -3 -17 -9 -23s-13.667 -9 -23 -9
s-17 3 -23 9s-9 13.667 -9 23v406c0 9.33301 3 17 9 23s13.667 9 23 9s17 -3 23 -9s9 -13.667 9 -23z" />
    <glyph glyph-name="Imacron" unicode="&#x12a;" horiz-adv-x="228" 
d="M148 647v-621c0 -9.33301 -3.33301 -17.333 -10 -24s-14.667 -10 -24 -10s-17.333 3.33301 -24 10s-10 14.667 -10 24v621c0 9.33301 3.33301 17.333 10 24s14.667 10 24 10s17.333 -3.33301 24 -10s10 -14.667 10 -24zM233 758c0 -6.66699 -2.5 -12.5 -7.5 -17.5
s-10.833 -7.5 -17.5 -7.5h-186c-6.66699 0 -12.5 2.5 -17.5 7.5s-7.5 10.833 -7.5 17.5s2.5 12.5 7.5 17.5s10.833 7.5 17.5 7.5h186c6.66699 0 12.5 -2.5 17.5 -7.5s7.5 -10.833 7.5 -17.5z" />
    <glyph glyph-name="imacron" unicode="&#x12b;" horiz-adv-x="193" 
d="M214 562c0 -6.66699 -2.33301 -12.5 -7 -17.5s-10.667 -7.5 -18 -7.5h-186c-7.33301 0 -13.333 2.5 -18 7.5s-7 10.833 -7 17.5s2.33301 12.5 7 17.5s10.667 7.5 18 7.5h186c7.33301 0 13.333 -2.5 18 -7.5s7 -10.833 7 -17.5zM128 430v-406c0 -9.33301 -3 -17 -9 -23
s-13.667 -9 -23 -9s-17 3 -23 9s-9 13.667 -9 23v406c0 9.33301 3 17 9 23s13.667 9 23 9s17 -3 23 -9s9 -13.667 9 -23z" />
    <glyph glyph-name="Ibreve" unicode="&#x12c;" horiz-adv-x="228" 
d="M148 647v-621c0 -9.33301 -3.33301 -17.333 -10 -24s-14.667 -10 -24 -10s-17.333 3.33301 -24 10s-10 14.667 -10 24v621c0 9.33301 3.33301 17.333 10 24s14.667 10 24 10s17.333 -3.33301 24 -10s10 -14.667 10 -24zM114 730c-32.667 0 -59.6709 8.33301 -81.0039 25
s-32 42 -32 76c0 6.66699 2.33301 12.334 7 17.001s10.334 7 17.001 7s12.334 -2.33301 17.001 -7s7 -10.334 7 -17.001c0 -36.667 21.667 -55 65 -55s65 18.333 65 55c0 6.66699 2.33301 12.334 7 17.001s10.334 7 17.001 7s12.334 -2.33301 17.001 -7s7 -10.334 7 -17.001
c0 -34 -10.667 -59.333 -32 -76s-48.333 -25 -81 -25z" />
    <glyph glyph-name="ibreve" unicode="&#x12d;" horiz-adv-x="193" 
d="M96 529c-32.667 0 -59.6709 8.33301 -81.0039 25s-32 42 -32 76c0 6.66699 2.33301 12.334 7 17.001s10.334 7 17.001 7s12.334 -2.33301 17.001 -7s7 -10.334 7 -17.001c0 -36.667 21.667 -55 65 -55s65 18.333 65 55c0 6.66699 2.33301 12.334 7 17.001
s10.334 7 17.001 7s12.334 -2.33301 17.001 -7s7 -10.334 7 -17.001c0 -34 -10.667 -59.333 -32 -76s-48.333 -25 -81 -25zM127.996 430v-406c0 -9.33301 -3 -17 -9 -23s-13.667 -9 -23 -9s-17 3 -23 9s-9 13.667 -9 23v406c0 9.33301 3 17 9 23s13.667 9 23 9s17 -3 23 -9
s9 -13.667 9 -23z" />
    <glyph glyph-name="Iogonek" unicode="&#x12e;" horiz-adv-x="228" 
d="M185 -125c6 0 11.167 -2.16602 15.5 -6.49902s6.5 -9.5 6.5 -15.5c0 -8 -3.66699 -14.333 -11 -19c-19.333 -11.333 -43.333 -17 -72 -17c-32 0 -57.167 7.33301 -75.5 22s-27.5 35.667 -27.5 63c0 41.333 23.333 74.333 70 99c-7.33301 6 -11 14.333 -11 25v621
c0 9.33301 3.33301 17.333 10 24s14.667 10 24 10s17.333 -3.33301 24 -10s10 -14.667 10 -24v-621c0 -13.333 -6 -23.333 -18 -30c-39.333 -20.667 -59 -47.334 -59 -80.001c0 -17.333 5 -30.5 15 -39.5s23.333 -13.5 40 -13.5c17.333 0 33 3 47 9
c4.66699 2 8.66699 3 12 3z" />
    <glyph glyph-name="iogonek" unicode="&#x12f;" horiz-adv-x="193" 
d="M168 -125c6 0 11.167 -2.16895 15.5 -6.50195s6.5 -9.5 6.5 -15.5c0 -8 -3.66699 -14.333 -11 -19c-19.333 -11.333 -43.333 -17 -72 -17c-32 0 -57.167 7.33301 -75.5 22s-27.5 35.667 -27.5 63c0 42 23.333 74.667 70 98c-6.66699 6.66699 -10 14.667 -10 24v406
c0 9.33301 3 17 9 23s13.667 9 23 9s17 -3 23 -9s9 -13.667 9 -23v-406c0 -11.333 -6 -21 -18 -29c-12 -7.33301 -21.5 -14.166 -28.5 -20.499s-13.333 -14.666 -19 -24.999s-8.5 -21.5 -8.5 -33.5c0 -17.333 5 -30.5 15 -39.5s23.333 -13.5 40 -13.5c17.333 0 33 3 47 9
c5.33301 2 9.33301 3 12 3zM96 555.998c-25.333 0 -38 12.667 -38 38c0 26.667 12.667 40 38 40s38 -13.333 38 -40c0 -25.333 -12.667 -38 -38 -38z" />
    <glyph glyph-name="Idotaccent" unicode="&#x130;" horiz-adv-x="228" 
d="M148 647v-621c0 -9.33301 -3.33301 -17.333 -10 -24s-14.667 -10 -24 -10s-17.333 3.33301 -24 10s-10 14.667 -10 24v621c0 9.33301 3.33301 17.333 10 24s14.667 10 24 10s17.333 -3.33301 24 -10s10 -14.667 10 -24zM115 736c-25.333 0 -38 13 -38 39
c0 26.667 12.667 40 38 40s38 -13.333 38 -40c0 -26 -12.667 -39 -38 -39z" />
    <glyph glyph-name="dotlessi" unicode="&#x131;" horiz-adv-x="193" 
d="M128 430v-406c0 -9.33301 -3 -17 -9 -23s-13.667 -9 -23 -9s-17 3 -23 9s-9 13.667 -9 23v406c0 9.33301 3 17 9 23s13.667 9 23 9s17 -3 23 -9s9 -13.667 9 -23z" />
    <glyph glyph-name="IJ" unicode="&#x132;" horiz-adv-x="616" 
d="M148 647v-621c0 -9.33301 -3.33301 -17.333 -10 -24s-14.667 -10 -24 -10s-17.333 3.33301 -24 10s-10 14.667 -10 24v621c0 9.33301 3.33301 17.333 10 24s14.667 10 24 10s17.333 -3.33301 24 -10s10 -14.667 10 -24zM238 10
c-12.667 7.33301 -18.999 17.334 -18.999 30.001c0 9.33301 3.16699 17.166 9.5 23.499s14.166 9.5 23.499 9.5c4 0 10.667 -2 20 -6c21.333 -10.667 46 -16 74 -16c42 0 72.833 13.667 92.5 41s29.5 64.333 29.5 111v444c0 9.33301 3.33301 17.333 10 24s14.667 10 24 10
s17.333 -3.33301 24 -10s10 -14.667 10 -24v-444c0 -66 -15.167 -118.5 -45.5 -157.5s-78.5 -58.5 -144.5 -58.5c-45.333 0 -81.333 7.66699 -108 23z" />
    <glyph glyph-name="ij" unicode="&#x133;" horiz-adv-x="378" 
d="M129 430v-406c0 -9.33301 -3.16699 -17 -9.5 -23s-13.833 -9 -22.5 -9s-16.167 3 -22.5 9s-9.5 13.667 -9.5 23v406c0 9.33301 3.16699 17 9.5 23s13.833 9 22.5 9s16.167 -3 22.5 -9s9.5 -13.667 9.5 -23zM97 556c-25.333 0 -38 12.667 -38 38c0 26.667 12.667 40 38 40
s38 -13.333 38 -40c0 -25.333 -12.667 -38 -38 -38zM249 -35v465c0 9.33301 3.16699 17 9.5 23s13.833 9 22.5 9s16.167 -3 22.5 -9s9.5 -13.667 9.5 -23v-465c0 -42.667 -13.833 -78.334 -41.5 -107.001s-62.5 -43 -104.5 -43c-8.66699 0 -15.834 2.83301 -21.501 8.5
s-8.5 12.834 -8.5 21.501s2.83301 15.834 8.5 21.501s12.834 8.5 21.501 8.5c24 0 43.667 8.66699 59 26s23 38.666 23 63.999zM281 556c-25.333 0 -38 12.667 -38 38c0 26.667 12.667 40 38 40s38 -13.333 38 -40c0 -25.333 -12.667 -38 -38 -38z" />
    <glyph glyph-name="Jcircumflex" unicode="&#x134;" horiz-adv-x="413" 
d="M35 10c-12.667 7.33301 -19.002 17.334 -19.002 30.001c0 9.33301 3.33301 17.166 10 23.499s14.334 9.5 23.001 9.5c4.66699 0 11.334 -2 20.001 -6c21.333 -10.667 46 -16 74 -16c42 0 72.833 13.667 92.5 41s29.5 64.333 29.5 111v444c0 9.33301 3.33301 17.333 10 24
s14.667 10 24 10s17.333 -3.33301 24 -10s10 -14.667 10 -24v-444c0 -66 -15.167 -118.5 -45.5 -157.5s-78.5 -58.5 -144.5 -58.5c-45.333 0 -81.333 7.66699 -108 23zM376.998 725.001l-80.9961 68.001l-81 -68c-4 -4 -9.33301 -6 -16 -6s-12.334 2.33301 -17.001 7
s-7 10.334 -7 17.001c0 7.33301 3 13.666 9 18.999l96 79c5.33301 4 10.666 6 15.999 6s10.666 -2 15.999 -6l96 -79c6 -4.66699 9 -11 9 -19c0 -6.66699 -2.33301 -12.334 -7 -17.001s-10.334 -7 -17.001 -7s-12 2 -16 6z" />
    <glyph glyph-name="jcircumflex" unicode="&#x135;" horiz-adv-x="194" 
d="M65 -35v465c0 9.33301 3.16699 17 9.5 23s13.833 9 22.5 9s16.167 -3 22.5 -9s9.5 -13.667 9.5 -23v-465c0 -42.667 -13.833 -78.334 -41.5 -107.001s-62.5 -43 -104.5 -43c-8.66699 0 -15.834 2.83301 -21.501 8.5s-8.5 12.834 -8.5 21.501s2.83301 15.834 8.5 21.501
s12.834 8.5 21.501 8.5c24 0 43.667 8.66699 59 26s23 38.666 23 63.999zM175 528l-80.9961 68l-81 -68c-4 -4 -9.33301 -6 -16 -6s-12.334 2.33301 -17.001 7s-7 10.334 -7 17.001c0 8 3 14.333 9 19l96 79c5.33301 4 10.666 6 15.999 6s10.666 -2 15.999 -6l96 -79
c6 -4.66699 9 -11 9 -19c0 -6.66699 -2.33301 -12.334 -7 -17.001s-10.334 -7 -17.001 -7s-12 2 -16 6z" />
    <glyph glyph-name="Kcommaaccent" unicode="&#x136;" horiz-adv-x="554" 
d="M148 335l291 333c6.66699 8.66699 15.667 13 27 13c9.33301 0 17.5 -3.5 24.5 -10.5s10.5 -15.167 10.5 -24.5c0 -8 -3.33301 -16 -10 -24l-209 -234l242 -341c4.66699 -6.66699 7 -13.667 7 -21c0 -9.33301 -3.33301 -17.333 -10 -24s-14.667 -10 -24 -10
c-12 0 -21.667 5.33301 -29 16l-232 330l-88 -99v-213c0 -9.33301 -3.33301 -17.333 -10 -24s-14.667 -10 -24 -10s-17.333 3.33301 -24 10s-10 14.667 -10 24v621c0 9.33301 3.33301 17.333 10 24s14.667 10 24 10s17.333 -3.33301 24 -10s10 -14.667 10 -24v-312z
M340 -100c0 -32 -4.5 -59.1689 -13.5 -81.502s-24.167 -44.166 -45.5 -65.499c-3.33301 -3.33301 -7 -5 -11 -5c-8.66699 0 -13 4.33301 -13 13c0 3.33301 1.33301 6.33301 4 9c19.333 19.333 29 41 29 65c0 11.333 -6 24.333 -18 39s-18 28.334 -18 41.001
c0 28.667 14 43 42 43c29.333 0 44 -19.333 44 -58z" />
    <glyph glyph-name="kcommaaccent" unicode="&#x137;" horiz-adv-x="453" 
d="M395 -8c-10.667 0 -20 5.00098 -28 15.001l-177 227l-61 -49v-161c0 -9.33301 -3.16699 -17 -9.5 -23s-13.833 -9 -22.5 -9s-16.167 3 -22.5 9s-9.5 13.667 -9.5 23v656c0 9.33301 3.16699 17 9.5 23s13.833 9 22.5 9s16.167 -3 22.5 -9s9.5 -13.667 9.5 -23v-419
l236 193c6 5.33301 13.333 8 22 8s16.167 -3 22.5 -9s9.5 -13.667 9.5 -23c0 -10.667 -4.33301 -19.334 -13 -26.001l-164 -131l178 -229c4.66699 -5.33301 7 -12 7 -20c0 -9.33301 -3.16699 -17 -9.5 -23s-13.833 -9 -22.5 -9zM292 -99.999
c0 -32 -4.5 -59.1689 -13.5 -81.502s-24.167 -44.166 -45.5 -65.499c-3.33301 -3.33301 -7 -5 -11 -5c-8.66699 0 -13 4.33301 -13 13c0 3.33301 1.33301 6.33301 4 9c19.333 19.333 29 41 29 65c0 11.333 -6 24.333 -18 39s-18 28.334 -18 41.001c0 28.667 14 43 42 43
c29.333 0 44 -19.333 44 -58z" />
    <glyph glyph-name="kgreenlandic" unicode="&#x138;" horiz-adv-x="453" 
d="M395 -8c-10.667 0 -20 5.00098 -28 15.001l-177 227l-61 -49v-161c0 -9.33301 -3.16699 -17 -9.5 -23s-13.833 -9 -22.5 -9s-16.167 3 -22.5 9s-9.5 13.667 -9.5 23v406c0 9.33301 3.16699 17 9.5 23s13.833 9 22.5 9s16.167 -3 22.5 -9s9.5 -13.667 9.5 -23v-169
l236 193c6 5.33301 13.333 8 22 8s16.167 -3 22.5 -9s9.5 -13.667 9.5 -23c0 -10.667 -4.33301 -19.334 -13 -26.001l-164 -131l178 -229c4.66699 -5.33301 7 -12 7 -20c0 -9.33301 -3.16699 -17 -9.5 -23s-13.833 -9 -22.5 -9z" />
    <glyph glyph-name="Lacute" unicode="&#x139;" horiz-adv-x="483" 
d="M148 64h274c9.33301 0 17 -3 23 -9s9 -13.667 9 -23s-3 -17 -9 -23s-13.667 -9 -23 -9h-308c-9.33301 -0 -17.333 3.33301 -24 10s-10 14.667 -10 24v613c0 9.33301 3.33301 17.333 10 24s14.667 10 24 10s17.333 -3.33301 24 -10s10 -14.667 10 -24v-583zM74 724
c-10.667 8.66699 -11.668 18.667 -3.00098 30l89 108c10.667 13.333 23.334 13.333 38.001 0c14 -13.333 15 -26 3 -38l-97 -98c-10 -10 -20 -10.667 -30 -2z" />
    <glyph glyph-name="lacute" unicode="&#x13a;" horiz-adv-x="219" 
d="M97 712c8.66699 0 16.167 -3.16504 22.5 -9.49805s9.5 -13.833 9.5 -22.5v-571c0 -38 13.333 -57 40 -57c8 0 15 -2.83301 21 -8.5s9 -12.834 9 -21.501s-3 -15.834 -9 -21.501s-13 -8.5 -21 -8.5c-69.333 0 -104 39 -104 117v571c0 8.66699 3.16699 16.167 9.5 22.5
s13.833 9.5 22.5 9.5zM51 742.002c-10.667 8.66699 -11.668 18.667 -3.00098 30l89 108c10.667 13.333 23.334 13.333 38.001 0c14 -13.333 15 -26 3 -38l-97 -98c-10 -10 -20 -10.667 -30 -2z" />
    <glyph glyph-name="Lcommaaccent" unicode="&#x13b;" horiz-adv-x="483" 
d="M148 64h274c9.33301 0 17 -3 23 -9s9 -13.667 9 -23s-3 -17 -9 -23s-13.667 -9 -23 -9h-308c-9.33301 -0 -17.333 3.33301 -24 10s-10 14.667 -10 24v613c0 9.33301 3.33301 17.333 10 24s14.667 10 24 10s17.333 -3.33301 24 -10s10 -14.667 10 -24v-583zM323 -100
c0 -32 -4.5 -59.1689 -13.5 -81.502s-24.167 -44.166 -45.5 -65.499c-3.33301 -3.33301 -7 -5 -11 -5c-8.66699 0 -13 4.33301 -13 13c0 3.33301 1.33301 6.33301 4 9c19.333 19.333 29 41 29 65c0 11.333 -6 24.333 -18 39s-18 28.334 -18 41.001c0 28.667 14 43 42 43
c29.333 0 44 -19.333 44 -58z" />
    <glyph glyph-name="lcommaaccent" unicode="&#x13c;" horiz-adv-x="219" 
d="M97 712c8.66699 0 16.167 -3.16504 22.5 -9.49805s9.5 -13.833 9.5 -22.5v-571c0 -38 13.333 -57 40 -57c8 0 15 -2.83301 21 -8.5s9 -12.834 9 -21.501s-3 -15.834 -9 -21.501s-13 -8.5 -21 -8.5c-69.333 0 -104 39 -104 117v571c0 8.66699 3.16699 16.167 9.5 22.5
s13.833 9.5 22.5 9.5zM173 -99.998c0 -32 -4.5 -59.1689 -13.5 -81.502s-24.167 -44.166 -45.5 -65.499c-3.33301 -3.33301 -7 -5 -11 -5c-8.66699 0 -13 4.33301 -13 13c0 3.33301 1.33301 6.33301 4 9c19.333 19.333 29 41 29 65c0 11.333 -6 24.333 -18 39
s-18 28.334 -18 41.001c0 28.667 14 43 42 43c29.333 0 44 -19.333 44 -58z" />
    <glyph glyph-name="Lcaron" unicode="&#x13d;" horiz-adv-x="483" 
d="M148 64h274c9.33301 0 17 -3 23 -9s9 -13.667 9 -23s-3 -17 -9 -23s-13.667 -9 -23 -9h-308c-9.33301 -0 -17.333 3.33301 -24 10s-10 14.667 -10 24v613c0 9.33301 3.33301 17.333 10 24s14.667 10 24 10s17.333 -3.33301 24 -10s10 -14.667 10 -24v-583zM395 617
c0 -69.333 -24 -129 -72 -179c-4 -4 -8.33301 -6 -13 -6c-10 0 -15 5 -15 15c0 3.33301 1 6.33301 3 9c24.667 34 37 64.333 37 91c0 12.667 -6 26.667 -18 42s-18 30 -18 44c0 32 15.667 48 47 48c32.667 0 49 -21.333 49 -64z" />
    <glyph glyph-name="lcaron" unicode="&#x13e;" horiz-adv-x="234" 
d="M97 712c8.66699 0 16.167 -3.16504 22.5 -9.49805s9.5 -13.833 9.5 -22.5v-571c0 -38 13.333 -57 40 -57c8 0 15 -2.83301 21 -8.5s9 -12.834 9 -21.501s-3 -15.834 -9 -21.501s-13 -8.5 -21 -8.5c-69.333 0 -104 39 -104 117v571c0 8.66699 3.16699 16.167 9.5 22.5
s13.833 9.5 22.5 9.5zM271 648.002c0 -69.333 -24 -129 -72 -179c-4 -4 -8.33301 -6 -13 -6c-10 0 -15 5 -15 15c0 2.66699 1 5.66699 3 9c24.667 34 37 64.333 37 91c0 12.667 -6 26.667 -18 42s-18 30 -18 44c0 32 15.667 48 47 48c32.667 0 49 -21.333 49 -64z" />
    <glyph glyph-name="Ldot" unicode="&#x13f;" horiz-adv-x="483" 
d="M148 64h274c9.33301 0 17 -3 23 -9s9 -13.667 9 -23s-3 -17 -9 -23s-13.667 -9 -23 -9h-308c-9.33301 -0 -17.333 3.33301 -24 10s-10 14.667 -10 24v613c0 9.33301 3.33301 17.333 10 24s14.667 10 24 10s17.333 -3.33301 24 -10s10 -14.667 10 -24v-583zM378 297
c-31.333 0 -47 15.667 -47 47c0 32 15.667 48 47 48s47 -16 47 -48c0 -31.333 -15.667 -47 -47 -47z" />
    <glyph glyph-name="ldot" unicode="&#x140;" horiz-adv-x="279" 
d="M97 712c8.66699 0 16.167 -3.16504 22.5 -9.49805s9.5 -13.833 9.5 -22.5v-571c0 -38 13.333 -57 40 -57c8 0 15 -2.83301 21 -8.5s9 -12.834 9 -21.501s-3 -15.834 -9 -21.501s-13 -8.5 -21 -8.5c-69.333 0 -104 39 -104 117v571c0 8.66699 3.16699 16.167 9.5 22.5
s13.833 9.5 22.5 9.5zM217 328.002c-31.333 0 -47 15.667 -47 47c0 32 15.667 48 47 48s47 -16 47 -48c0 -31.333 -15.667 -47 -47 -47z" />
    <glyph glyph-name="Lslash" unicode="&#x141;" horiz-adv-x="503" 
d="M167 64h274c8.66699 0 16.167 -3 22.5 -9s9.5 -13.667 9.5 -23s-3.16699 -17 -9.5 -23s-13.833 -9 -22.5 -9h-308c-9.33301 -0 -17.333 3.33301 -24 10s-10 14.667 -10 24v220l-45 -21c-4 -2 -8.33301 -3 -13 -3c-8 0 -14.833 2.83301 -20.5 8.5s-8.5 12.5 -8.5 20.5
c0 12.667 6 21.667 18 27l69 32v329c0 9.33301 3.33301 17.333 10 24s14.667 10 24 10s17.333 -3.33301 24 -10s10 -14.667 10 -24v-298l172 81c4 2 8.33301 3 13 3c8 0 14.833 -2.83301 20.5 -8.5s8.5 -12.5 8.5 -20.5c0 -13.333 -6 -22.333 -18 -27l-196 -92v-221z" />
    <glyph glyph-name="lslash" unicode="&#x142;" horiz-adv-x="254" 
d="M97 712c8.66699 0 16.168 -3.16504 22.501 -9.49805s9.5 -13.833 9.5 -22.5v-262l78 45c4 2 8 3 12 3c7.33301 0 13.666 -2.5 18.999 -7.5s8 -11.5 8 -19.5c0 -10.667 -4.66699 -18.667 -14 -24l-103 -59v-247c0 -38 13.333 -57 40 -57c8 0 15 -2.83301 21 -8.5
s9 -12.834 9 -21.501s-3 -15.834 -9 -21.501s-13 -8.5 -21 -8.5c-69.333 0 -104 39 -104 117v210l-24 -14c-4.66699 -2.66699 -9.33398 -4 -14.001 -4c-7.33301 0 -13.666 2.5 -18.999 7.5s-8 11.5 -8 19.5c0 10.667 4.66699 18.667 14 24l51 29v299
c0 8.66699 3.16699 16.167 9.5 22.5s13.833 9.5 22.5 9.5z" />
    <glyph glyph-name="Nacute" unicode="&#x143;" horiz-adv-x="620" 
d="M517 681c8.66699 0 16.332 -3.16602 22.999 -9.49902s10 -14.166 10 -23.499v-622c0 -9.33301 -3.33301 -17.333 -10 -24s-14.667 -10 -24 -10c-11.333 0 -20.666 4.66699 -27.999 14l-352 531v-512c0 -8.66699 -3.33301 -16.334 -10 -23.001s-14.334 -10 -23.001 -10
s-16.334 3.33301 -23.001 10s-10 14.334 -10 23.001v623c0 9.33301 3.33301 17.166 10 23.499s14.334 9.5 23.001 9.5c11.333 0 20.333 -4.66699 27 -14l354 -532v513c0 9.33301 3.33301 17.166 10 23.499s14.334 9.5 23.001 9.5zM273.998 723.001
c-10.667 8.66699 -11.668 18.667 -3.00098 30l89 108c10.667 13.333 23.334 13.333 38.001 0c14 -13.333 15 -26 3 -38l-97 -98c-10 -10 -20 -10.667 -30 -2z" />
    <glyph glyph-name="nacute" unicode="&#x144;" horiz-adv-x="501" 
d="M262 468c122.667 0 183.999 -59 183.999 -177v-267c0 -9.33301 -3 -17 -9 -23s-13.667 -9 -23 -9s-17 3 -23 9s-9 13.667 -9 23v254c0 43.333 -8.66699 76.333 -26 99s-48.666 34 -93.999 34c-88.667 0 -133 -46.667 -133 -140v-247c0 -9.33301 -3.16699 -17 -9.5 -23
s-13.833 -9 -22.5 -9s-16.167 3 -22.5 9s-9.5 13.667 -9.5 23v406c0 9.33301 3.16699 17 9.5 23s13.833 9 22.5 9s16.167 -3 22.5 -9s9.5 -13.667 9.5 -23v-32c10 20 26.833 36.667 50.5 50s51.167 20 82.5 20zM195.999 520c-10.667 8.66699 -11.668 18.667 -3.00098 30
l89 108c10.667 13.333 23.334 13.333 38.001 0c14 -13.333 15 -26 3 -38l-97 -98c-10 -10 -20 -10.667 -30 -2z" />
    <glyph glyph-name="Ncommaaccent" unicode="&#x145;" horiz-adv-x="620" 
d="M517 681c8.66699 0 16.332 -3.16602 22.999 -9.49902s10 -14.166 10 -23.499v-622c0 -9.33301 -3.33301 -17.333 -10 -24s-14.667 -10 -24 -10c-11.333 0 -20.666 4.66699 -27.999 14l-352 531v-512c0 -8.66699 -3.33301 -16.334 -10 -23.001s-14.334 -10 -23.001 -10
s-16.334 3.33301 -23.001 10s-10 14.334 -10 23.001v623c0 9.33301 3.33301 17.166 10 23.499s14.334 9.5 23.001 9.5c11.333 0 20.333 -4.66699 27 -14l354 -532v513c0 9.33301 3.33301 17.166 10 23.499s14.334 9.5 23.001 9.5zM349.998 -99.999
c0 -32 -4.5 -59.1689 -13.5 -81.502s-24.167 -44.166 -45.5 -65.499c-3.33301 -3.33301 -7 -5 -11 -5c-8.66699 0 -13 4.33301 -13 13c0 3.33301 1.33301 6.33301 4 9c19.333 19.333 29 41 29 65c0 11.333 -6 24.333 -18 39s-18 28.334 -18 41.001c0 28.667 14 43 42 43
c29.333 0 44 -19.333 44 -58z" />
    <glyph glyph-name="ncommaaccent" unicode="&#x146;" horiz-adv-x="501" 
d="M262 468c122.667 0 183.999 -59 183.999 -177v-267c0 -9.33301 -3 -17 -9 -23s-13.667 -9 -23 -9s-17 3 -23 9s-9 13.667 -9 23v254c0 43.333 -8.66699 76.333 -26 99s-48.666 34 -93.999 34c-88.667 0 -133 -46.667 -133 -140v-247c0 -9.33301 -3.16699 -17 -9.5 -23
s-13.833 -9 -22.5 -9s-16.167 3 -22.5 9s-9.5 13.667 -9.5 23v406c0 9.33301 3.16699 17 9.5 23s13.833 9 22.5 9s16.167 -3 22.5 -9s9.5 -13.667 9.5 -23v-32c10 20 26.833 36.667 50.5 50s51.167 20 82.5 20zM302.999 -100c0 -32 -4.5 -59.1689 -13.5 -81.502
s-24.167 -44.166 -45.5 -65.499c-3.33301 -3.33301 -7 -5 -11 -5c-8.66699 0 -13 4.33301 -13 13c0 3.33301 1.33301 6.33301 4 9c19.333 19.333 29 41 29 65c0 11.333 -6 24.333 -18 39s-18 28.334 -18 41.001c0 28.667 14 43 42 43c29.333 0 44 -19.333 44 -58z" />
    <glyph glyph-name="Ncaron" unicode="&#x147;" horiz-adv-x="620" 
d="M517 681c8.66699 0 16.332 -3.16602 22.999 -9.49902s10 -14.166 10 -23.499v-622c0 -9.33301 -3.33301 -17.333 -10 -24s-14.667 -10 -24 -10c-11.333 0 -20.666 4.66699 -27.999 14l-352 531v-512c0 -8.66699 -3.33301 -16.334 -10 -23.001s-14.334 -10 -23.001 -10
s-16.334 3.33301 -23.001 10s-10 14.334 -10 23.001v623c0 9.33301 3.33301 17.166 10 23.499s14.334 9.5 23.001 9.5c11.333 0 20.333 -4.66699 27 -14l354 -532v513c0 9.33301 3.33301 17.166 10 23.499s14.334 9.5 23.001 9.5zM320.998 773.001l80.9961 68
c4 4 9.33301 6 16 6s12.334 -2.33301 17.001 -7s7 -10.334 7 -17.001c0 -7.33301 -3 -13.666 -9 -18.999l-96 -79c-5.33301 -4 -10.666 -6 -15.999 -6s-10.666 2 -15.999 6l-96 79c-6 5.33301 -9 11.666 -9 18.999c0 6.66699 2.33301 12.334 7 17.001s10.334 7 17.001 7
s12 -2 16 -6z" />
    <glyph glyph-name="ncaron" unicode="&#x148;" horiz-adv-x="501" 
d="M262 468c122.667 0 183.999 -59 183.999 -177v-267c0 -9.33301 -3 -17 -9 -23s-13.667 -9 -23 -9s-17 3 -23 9s-9 13.667 -9 23v254c0 43.333 -8.66699 76.333 -26 99s-48.666 34 -93.999 34c-88.667 0 -133 -46.667 -133 -140v-247c0 -9.33301 -3.16699 -17 -9.5 -23
s-13.833 -9 -22.5 -9s-16.167 3 -22.5 9s-9.5 13.667 -9.5 23v406c0 9.33301 3.16699 17 9.5 23s13.833 9 22.5 9s16.167 -3 22.5 -9s9.5 -13.667 9.5 -23v-32c10 20 26.833 36.667 50.5 50s51.167 20 82.5 20zM264.999 553l80.9961 68c4 4 9.33301 6 16 6
s12.334 -2.33301 17.001 -7s7 -10.334 7 -17.001c0 -7.33301 -3 -13.666 -9 -18.999l-96 -79c-5.33301 -4 -10.666 -6 -15.999 -6s-10.666 2 -15.999 6l-96 79c-6 5.33301 -9 11.666 -9 18.999c0 6.66699 2.33301 12.334 7 17.001s10.334 7 17.001 7s12 -2 16 -6z" />
    <glyph glyph-name="napostrophe" unicode="&#x149;" horiz-adv-x="501" 
d="M262 468c122.667 0 183.999 -59 183.999 -177v-267c0 -9.33301 -3 -17 -9 -23s-13.667 -9 -23 -9s-17 3 -23 9s-9 13.667 -9 23v254c0 43.333 -8.66699 76.333 -26 99s-48.666 34 -93.999 34c-88.667 0 -133 -46.667 -133 -140v-247c0 -9.33301 -3.16699 -17 -9.5 -23
s-13.833 -9 -22.5 -9s-16.167 3 -22.5 9s-9.5 13.667 -9.5 23v406c0 9.33301 3.16699 17 9.5 23s13.833 9 22.5 9s16.167 -3 22.5 -9s9.5 -13.667 9.5 -23v-32c10 20 26.833 36.667 50.5 50s51.167 20 82.5 20zM91.999 617c0 -32 -4.5 -59.1689 -13.5 -81.502
s-24.167 -44.166 -45.5 -65.499c-3.33301 -3.33301 -7 -5 -11 -5c-8.66699 0 -13 4.33301 -13 13c0 3.33301 1.33301 6.33301 4 9c19.333 19.333 29 41 29 65c0 11.333 -6 24.333 -18 39s-18 28.334 -18 41.001c0 28.667 14 43 42 43c29.333 0 44 -19.333 44 -58z" />
    <glyph glyph-name="Eng" unicode="&#x14a;" horiz-adv-x="620" 
d="M360 -137c41.333 0 72.166 13.501 92.499 40.501s30.833 63.167 31.5 108.5l-348 525v-512c0 -8.66699 -3.33301 -16.334 -10 -23.001s-14.334 -10 -23.001 -10s-16.334 3.33301 -23.001 10s-10 14.334 -10 23.001v623c0 9.33301 3.33301 17.166 10 23.499
s14.334 9.5 23.001 9.5c11.333 0 20.333 -4.66699 27 -14l354 -532v513c0 9.33301 3.33301 17.166 10 23.499s14.334 9.5 23.001 9.5s16.334 -3.16699 23.001 -9.5s10 -14.166 10 -23.499v-633c0 -66 -15.167 -118.5 -45.5 -157.5s-78.5 -58.5 -144.5 -58.5
c-9.33301 0 -17 3.16699 -23 9.5s-9 13.833 -9 22.5s3 16.167 9 22.5s13.667 9.5 23 9.5z" />
    <glyph glyph-name="eng" unicode="&#x14b;" horiz-adv-x="501" 
d="M382 -51l-0.000976562 329c0 43.333 -8.66699 76.333 -26 99s-48.666 34 -93.999 34c-88.667 0 -133 -46.667 -133 -140v-247c0 -9.33301 -3.16699 -17 -9.5 -23s-13.833 -9 -22.5 -9s-16.167 3 -22.5 9s-9.5 13.667 -9.5 23v406c0 9.33301 3.16699 17 9.5 23
s13.833 9 22.5 9s16.167 -3 22.5 -9s9.5 -13.667 9.5 -23v-32c10 20 26.833 36.667 50.5 50s51.167 20 82.5 20c122.667 0 184 -59 184 -177v-342c0 -42.667 -13.833 -78.334 -41.5 -107.001s-62.5 -43 -104.5 -43c-8.66699 0 -15.834 2.83301 -21.501 8.5
s-8.5 12.834 -8.5 21.501s2.83301 15.834 8.5 21.501s12.834 8.5 21.501 8.5c24 0 43.667 8.66699 59 26s23 38.666 23 63.999z" />
    </font>
</defs>
</svg>
