<?xml version="1.0" standalone="no"?>
<!DOCTYPE svg PUBLIC "-//W3C//DTD SVG 1.1//EN" "http://www.w3.org/Graphics/SVG/1.1/DTD/svg11.dtd" >
<svg>
<metadata>
Created by FontForge 20090914 at Tue Nov 21 07:44:33 2017
 By www-data
Copyright 1990-1993 Bitstream Inc.  All rights reserved.
</metadata>
<defs>
<font id="BaskervilleBT-Bold" horiz-adv-x="1024" >
  <font-face 
    font-family="Baskerville Bold BT"
    font-weight="700"
    font-stretch="normal"
    units-per-em="2048"
    panose-1="2 2 8 2 6 5 6 2 3 3"
    ascent="1638"
    descent="-410"
    x-height="901"
    cap-height="1374"
    bbox="-342 -573.002 2497 1964"
    underline-thickness="190"
    underline-position="-192"
    unicode-range="U+0020-U+F002"
  />
<missing-glyph horiz-adv-x="1229" 
d="M102 -362v1806h1024v-1806h-1024zM217 -248h795v1577h-795v-1577z" />
    <glyph glyph-name=".notdef" horiz-adv-x="1229" 
d="M102 -362v1806h1024v-1806h-1024zM217 -248h795v1577h-795v-1577z" />
    <glyph glyph-name="space" unicode=" " horiz-adv-x="563" 
 />
    <glyph glyph-name="exclam" unicode="!" horiz-adv-x="678" 
d="M299 420c-0.666992 131.333 -21 282.501 -61 453.501s-60 278.5 -60 322.5c0 63.333 14.5 113.666 43.5 150.999s67.833 56 116.5 56c49.333 0 88.333 -18.5 117 -55.5s43 -87.5 43 -151.5c0 -46 -19.667 -154.167 -59 -324.5s-60.333 -320.833 -63 -451.5h-77z
M168 141.001c0 47.333 16.667 87.5 50 120.5s74 49.5 122 49.5s88.333 -16.333 121 -49s49 -73 49 -121c0 -46.667 -16.833 -86.667 -50.5 -120s-74.167 -50 -121.5 -50s-87.5 16.667 -120.5 50s-49.5 73.333 -49.5 120z" />
    <glyph glyph-name="quotedbl" unicode="&#x22;" horiz-adv-x="707" 
d="M543 852l-41.001 0.000976562l-80 461c-1.33301 8 -2.33301 15 -3 21s-1 11.333 -1 16c0 35.333 9.33301 63.166 28 83.499s44 30.5 76 30.5c32.667 0 58.334 -9.83301 77.001 -29.5s28 -46.5 28 -80.5c0 -4 -0.333008 -9 -1 -15l-3 -26zM202.999 852.001h-41.001
l-80 461c-0.666992 4.66699 -1.16699 9.5 -1.5 14.5s-0.5 12.5 -0.5 22.5c0 34.667 9.33301 62.334 28 83.001s43.334 31 74.001 31c32 0 57.167 -9.66699 75.5 -29s27.5 -46.333 27.5 -81c0 -10.667 -0.166992 -18.834 -0.5 -24.501s-0.833008 -11.167 -1.5 -16.5z" />
    <glyph glyph-name="numbersign" unicode="#" horiz-adv-x="1575" 
d="M705 852l-91 -252h265l88 252h-262zM711 1464h215l-148 -415h254l150 415h213l-148 -415h283l-74 -199h-278l-88 -248h292l-71 -196h-291l-148 -416h-215l148 416h-254l-150 -416h-215l148 416h-289l74 196h287l88 248h-304l74 199h299z" />
    <glyph glyph-name="dollar" unicode="$" horiz-adv-x="1128" 
d="M596 84c60.667 8 107.833 31.168 141.5 69.501s50.5 87.5 50.5 147.5c0 52 -15.5 96.667 -46.5 134s-79.5 69.666 -145.5 96.999v-448zM499.999 905.001l-0.00195312 383c-53.333 -4 -97.166 -23.5 -131.499 -58.5s-51.5 -77.5 -51.5 -127.5
c0 -40.667 14.333 -76.5 43 -107.5s75.334 -60.833 140.001 -89.5zM499.997 -290.999l0.00195312 281.001c-126 4 -228.167 30 -306.5 78s-117.5 107.333 -117.5 178c0 34 10.5 61.5 31.5 82.5s48.5 31.5 82.5 31.5c62.667 0 107 -51.667 133 -155
c2.66699 -10.667 5 -19 7 -25c8 -32.667 25.167 -57.834 51.5 -75.501s59.5 -26.5 99.5 -26.5h19v502c-139.333 62.667 -239 127.167 -299 193.5s-90 143.833 -90 232.5c0 104 35.5 189.833 106.5 257.5s164.833 104.5 281.5 110.5l1 144h96v-141
c116.667 -5.33301 210.667 -30.666 282 -75.999s107 -102.333 107 -171c0 -32 -10.333 -58 -31 -78s-48 -30 -82 -30c-30 0 -53.167 8.16699 -69.5 24.5s-31.833 55.166 -46.5 116.499c-10.667 48 -27.834 81.333 -51.501 100s-59.834 28.334 -108.501 29.001v-434
c145.333 -65.333 250.333 -134.333 315 -207s97 -158 97 -256c0 -109.333 -36.5 -199.833 -109.5 -271.5s-173.833 -114.834 -302.5 -129.501v-285h-96z" />
    <glyph glyph-name="percent" unicode="%" horiz-adv-x="1808" 
d="M631 1307c-30.667 0 -60.165 -12.6689 -88.498 -38.002s-56.833 -64.666 -85.5 -117.999c-26.667 -49.333 -47.334 -101.5 -62.001 -156.5s-22 -105.167 -22 -150.5c0 -48.667 11.5 -88.167 34.5 -118.5s52.5 -45.5 88.5 -45.5c32 0 62.167 11 90.5 33
s54.833 54.667 79.5 98c25.333 45.333 45.666 95.833 60.999 151.5s23 108.834 23 159.501c0 54.667 -11.167 99.167 -33.5 133.5s-50.833 51.5 -85.5 51.5zM379.002 -102.002l804.996 1353c-40 -20.667 -79.333 -36 -118 -46s-78.667 -15 -120 -15
c-32 0 -60.333 3.16699 -85 9.5s-48 16.166 -70 29.499c6.66699 -30.667 11.334 -55.334 14.001 -74.001s4 -35.667 4 -51c0 -58 -9.5 -117.833 -28.5 -179.5s-44.167 -115.834 -75.5 -162.501c-39.333 -56.667 -82.833 -98.834 -130.5 -126.501s-100.5 -41.5 -158.5 -41.5
c-87.333 0 -157 29.833 -209 89.5s-78 139.834 -78 240.501c0 52 8.66699 105 26 159s41.333 102 72 144c40.667 56 88.334 99.333 143.001 130s112.334 46 173.001 46c27.333 0 54.5 -4 81.5 -12s52.167 -19.667 75.5 -35l22 -14c90.667 -62 171 -93 241 -93
c62 0 127.333 19.5 196 58.5s132.334 93.167 191.001 162.5h75l-933 -1572h-113zM1499 676.001c-30.667 0 -60.832 -14.001 -90.499 -42.001s-58.167 -69.333 -85.5 -124c-24.667 -48 -43.834 -98.333 -57.501 -151s-20.5 -102 -20.5 -148c0 -48.667 11.333 -87.5 34 -116.5
s53 -43.5 91 -43.5c60.667 0 117.167 45 169.5 135s78.5 190.333 78.5 301c0 58.667 -10.667 104.834 -32 138.501s-50.333 50.5 -87 50.5zM999 291c0 53.333 9.50098 108.002 28.501 164.002s44.5 105.667 76.5 149c42 55.333 89.333 97.166 142 125.499s109 42.5 169 42.5
c82 0 146.5 -26.333 193.5 -79s70.5 -125.334 70.5 -218.001c0 -58.667 -9.66699 -119.167 -29 -181.5s-45.666 -117.833 -78.999 -166.5c-38.667 -56 -81.334 -97.333 -128.001 -124s-99.667 -40 -159 -40c-84.667 0 -153.334 30 -206.001 90s-79 139.333 -79 238z" />
    <glyph glyph-name="ampersand" unicode="&#x26;" horiz-adv-x="1800" 
d="M719 864c36.667 36 65.333 76.501 86 121.501s31 89.167 31 132.5c0 60 -12.833 107.833 -38.5 143.5s-60.167 53.5 -103.5 53.5c-37.333 0 -68.5 -13.167 -93.5 -39.5s-37.5 -59.5 -37.5 -99.5c0 -42 11.5 -86.333 34.5 -133s63.5 -106.334 121.5 -179.001z
M835.999 236.001c-44.667 40 -93 91.833 -145 155.5s-106.333 137.167 -163 220.5c-40.667 -26 -72 -58.833 -94 -98.5s-33 -83.167 -33 -130.5c0 -64 22.833 -120.667 68.5 -170s98.167 -74 157.5 -74c41.333 0 80 8.33301 116 25s67 40.667 93 72zM912.999 166.001
c-76 -66.667 -152.001 -116.166 -228.001 -148.499s-154.667 -48.5 -236 -48.5c-97.333 0 -175.666 26.5 -234.999 79.5s-89 122.833 -89 209.5c0 80.667 28.5 156.5 85.5 227.5s145.833 141.167 266.5 210.5c-43.333 64.667 -76 126.5 -98 185.5s-33 114.833 -33 167.5
c0 101.333 34.5 186 103.5 254s154.833 102 257.5 102c91.333 0 166.333 -26 225 -78s88 -117.667 88 -197c0 -68 -20 -130.333 -60 -187s-100.667 -108.334 -182 -155.001l113.5 -141l148.5 -174l12 18c164.667 252.667 305 379 421 379
c59.333 0 107.166 -16.667 143.499 -50s54.5 -77.333 54.5 -132c0 -46.667 -14.833 -84.667 -44.5 -114s-68.167 -44 -115.5 -44c-30.667 0 -57.167 6.16699 -79.5 18.5s-38.833 29.833 -49.5 52.5c-4 8.66699 -7 23 -9 43c-4 32 -16 48 -36 48c-24 0 -71.667 -56 -143 -168
l-82 -127c86 -91.333 152.167 -152 198.5 -182s91.5 -45 135.5 -45c37.333 0 71 8.5 101 25.5s57 42.5 81 76.5l74 -57c-61.333 -86 -125.166 -148.5 -191.499 -187.5s-141.833 -58.5 -226.5 -58.5c-64 0 -126.5 16.167 -187.5 48.5s-122.167 81.833 -183.5 148.5z" />
    <glyph glyph-name="quotesingle" unicode="'" horiz-adv-x="365" 
d="M203 852l-41 0.00195312l-80 461c-1.33301 8 -2.33301 15 -3 21s-1 11.333 -1 16c0 35.333 9.33301 63.166 28 83.499s44 30.5 76 30.5s57.167 -9.66699 75.5 -29s27.5 -46.333 27.5 -81c0 -10.667 -0.166992 -18.834 -0.5 -24.501s-0.833008 -11.167 -1.5 -16.5z" />
    <glyph glyph-name="parenleft" unicode="(" horiz-adv-x="674" 
d="M578 -440c-149.333 130.667 -262.833 274.333 -340.5 431s-116.5 320 -116.5 490c0 172 38.333 335.5 115 490.5s190.667 298.833 342 431.5l49 -43c-93.333 -118.667 -162.833 -249 -208.5 -391s-68.5 -298.333 -68.5 -469c0 -188 22.333 -354.5 67 -499.5
s114.667 -278.167 210 -399.5z" />
    <glyph glyph-name="parenright" unicode=")" horiz-adv-x="674" 
d="M96 -440l-49 40.999c94.667 120.667 164.167 253.334 208.5 398.001s66.5 311.667 66.5 501c0 170.667 -22.833 327 -68.5 469s-115.167 272.333 -208.5 391l49 43c151.333 -132.667 265.333 -276.5 342 -431.5s115 -318.5 115 -490.5
c0 -170.667 -38.667 -334.167 -116 -490.5s-190.333 -299.833 -339 -430.5z" />
    <glyph glyph-name="asterisk" unicode="*" 
d="M528 940c2.66699 -58.667 19.5039 -119.84 50.5039 -183.507s46.5 -103.5 46.5 -119.5c0 -30 -10.333 -54.167 -31 -72.5s-48 -27.5 -82 -27.5s-61 9.16699 -81 27.5s-30 43.166 -30 74.499c0 15.333 15.167 55.333 45.5 120s47.5 125 51.5 181
c-26 -15.333 -50.5 -34.666 -73.5 -57.999s-45.833 -51.666 -68.5 -84.999c-2.66699 -4 -6.33398 -10 -11.001 -18c-37.333 -58 -78 -87 -122 -87c-26.667 0 -51 12.667 -73 38s-33 53 -33 83c0 28.667 10.5 52.167 31.5 70.5s49.167 28.833 84.5 31.5l30 3
c95.333 6 167.333 22.333 216 49c-58.667 31.333 -143 49.666 -253 54.999h-1c-32.667 2 -58.834 12.333 -78.501 31s-29.5 42.334 -29.5 71.001c0 33.333 11.167 61.833 33.5 85.5s49.166 35.5 80.499 35.5c36.667 0 73.667 -28.333 111 -85l14 -21
c25.333 -35.333 48.833 -64 70.5 -86s44.5 -40.333 68.5 -55c-2.66699 57.333 -19.334 117.833 -50.001 181.5s-46 103.834 -46 120.501c0 30.667 10.5 55.5 31.5 74.5s48.167 28.5 81.5 28.5s60.166 -9.66699 80.499 -29s30.5 -44.666 30.5 -75.999
c0 -13.333 -14.833 -52 -44.5 -116s-47.167 -125.667 -52.5 -185c26.667 15.333 51.334 34.333 74.001 57s45.334 51 68.001 85c2.66699 4.66699 7 11.334 13 20.001c38.667 57.333 78 86 118 86c27.333 0 51.833 -12.333 73.5 -37s32.5 -52.667 32.5 -84
c0 -33.333 -9.83301 -57.666 -29.5 -72.999s-59.5 -25.666 -119.5 -30.999c-54 -4.66699 -96.333 -10.667 -127 -18s-58.667 -17.666 -84 -30.999c25.333 -15.333 54 -27 86 -35s74 -14 126 -18c56 -4 94.667 -14 116 -30s32 -41.667 32 -77c0 -32 -11 -59.833 -33 -83.5
s-47.667 -35.5 -77 -35.5c-38 0 -79.667 33.333 -125 100c-2 3.33301 -3.33301 5.33301 -4 6c-24.667 36.667 -47.834 66 -69.501 88s-44.5 40 -68.5 54z" />
    <glyph glyph-name="plus" unicode="+" horiz-adv-x="1706" 
d="M752 1221h202v-510h498v-199h-498v-512h-202v512h-498v199h498v510z" />
    <glyph glyph-name="comma" unicode="," horiz-adv-x="563" 
d="M102 -319c84.667 40.667 148.333 87.501 191 140.501s64.334 111.833 65.001 176.5c-14.667 -6 -29.334 -10.5 -44.001 -13.5s-29.334 -4.5 -44.001 -4.5c-49.333 0 -87.833 14.667 -115.5 44s-41.5 69.666 -41.5 120.999c0 47.333 16.333 86.833 49 118.5
s73.667 47.5 123 47.5c59.333 0 106.5 -22.167 141.5 -66.5s52.5 -104.833 52.5 -181.5c0 -103.333 -28.667 -192 -86 -266s-144.666 -134.667 -261.999 -182z" />
    <glyph glyph-name="hyphen" unicode="-" horiz-adv-x="676" 
d="M92 332v243h492v-243h-492z" />
    <glyph glyph-name="period" unicode="." horiz-adv-x="563" 
d="M111 141c0 47.333 16.667 87.5 50 120.5s74 49.5 122 49.5c47.333 0 87.5 -16.333 120.5 -49s49.5 -73 49.5 -121c0 -46.667 -16.5 -86.667 -49.5 -120s-73.167 -50 -120.5 -50s-87.833 16.667 -121.5 50s-50.5 73.333 -50.5 120z" />
    <glyph glyph-name="slash" unicode="/" horiz-adv-x="557" 
d="M-63 -190l518 1593h100l-518 -1593h-100z" />
    <glyph glyph-name="zero" unicode="0" horiz-adv-x="1128" 
d="M401 752c0 -283.333 12.167 -470.333 36.5 -561s67.5 -136 129.5 -136c60 0 101.667 45.833 125 137.5s35 270.5 35 536.5c0 220 -12.333 372 -37 456s-67.667 126 -129 126c-58.667 0 -100 -40.5 -124 -121.5s-36 -226.833 -36 -437.5zM86 684
c0 105.333 12.8311 202.167 38.498 290.5s64.167 168.166 115.5 239.499c46 64 95.5 111.5 148.5 142.5s111.167 46.5 174.5 46.5c58.667 0 113.334 -13.5 164.001 -40.5s98.334 -68.167 143.001 -123.5c54.667 -67.333 97 -148.166 127 -242.499s45 -194.5 45 -300.5
c0 -107.333 -14 -208.666 -42 -303.999s-68.333 -179 -121 -251c-43.333 -58.667 -91 -102.334 -143 -131.001s-109.667 -43 -173 -43c-62 0 -118.5 14 -169.5 42s-98.167 70.667 -141.5 128c-54.667 73.333 -96 156.333 -124 249s-42 192 -42 298z" />
    <glyph glyph-name="one" unicode="1" horiz-adv-x="1128" 
d="M222 -6l-0.999023 79.999c81.333 0 134.166 9.83301 158.499 29.5s36.5 62.834 36.5 129.501v859c0 51.333 -10 85 -30 101s-65.333 24 -136 24h-29v73c94.667 10 176.667 24.167 246 42.5s130.666 41.833 183.999 70.5l72 -1c-2 -39.333 -3.5 -73.333 -4.5 -102
s-1.5 -51.667 -1.5 -69v-1002c0 -65.333 12.833 -107.5 38.5 -126.5s78.834 -28.5 159.501 -28.5v-80c-70.667 2 -134.667 3.5 -192 4.5s-108 1.5 -152 1.5c-58 0 -116.167 -0.5 -174.5 -1.5s-116.5 -2.5 -174.5 -4.5z" />
    <glyph glyph-name="two" unicode="2" horiz-adv-x="1128" 
d="M68 0c53.333 134.667 165 301 335 499l80 95c60.667 73.333 105.667 145.5 135 216.5s44 144.167 44 219.5c0 86 -18.333 154.333 -55 205s-85.334 76 -146.001 76c-52.667 0 -94.167 -16.667 -124.5 -50s-45.5 -79 -45.5 -137c0 -41.333 10.333 -75.833 31 -103.5
s46.334 -41.5 77.001 -41.5c16.667 0 32.667 2.5 48 7.5s30.333 12.833 45 23.5c0 -3.33301 0.333008 -7.33301 1 -12c2 -13.333 3 -21.666 3 -24.999c0 -46 -15.833 -83.5 -47.5 -112.5s-72.5 -43.5 -122.5 -43.5c-68.667 0 -125.167 23.667 -169.5 71
s-66.5 107.666 -66.5 180.999c0 95.333 41.5 174.833 124.5 238.5s188.167 95.5 315.5 95.5c132 0 238.5 -35.5 319.5 -106.5s121.5 -164.5 121.5 -280.5c0 -76.667 -15.333 -143.5 -46 -200.5s-94 -126.167 -190 -207.5c-38 -32.667 -93.333 -77 -166 -133
c-120.667 -94.667 -199.667 -165.667 -237 -213h639l-82 -381h-78c4 22.667 6.66699 38.667 8 48s2 17.333 2 24c0 18.667 -5 31.167 -15 37.5s-38.333 9.5 -85 9.5h-10h-643z" />
    <glyph glyph-name="three" unicode="3" horiz-adv-x="1128" 
d="M602 795l0.000976562 -16.9961h14c111.333 0 200.333 -30.333 267 -91s100 -141.667 100 -243c0 -54.667 -11.333 -107.834 -34 -159.501s-55 -98.167 -97 -139.5c-60.667 -59.333 -126.834 -103.833 -198.501 -133.5s-149.5 -44.5 -233.5 -44.5
c-106.667 0 -192.834 21.167 -258.501 63.5s-98.5 97.166 -98.5 164.499c0 29.333 12 54.666 36 75.999s53 32 87 32c29.333 0 54.5 -9.33301 75.5 -28s41.833 -50.334 62.5 -95.001c21.333 -47.333 42.333 -79.666 63 -96.999s46 -26 76 -26c64 0 114.5 30.167 151.5 90.5
s55.5 143.5 55.5 249.5c0 106.667 -11.667 184.167 -35 232.5s-60.333 72.5 -111 72.5c-22.667 0 -43.667 -6.5 -63 -19.5s-37.666 -33.5 -54.999 -61.5c-15.333 -24 -28.833 -40.333 -40.5 -49s-24.834 -13 -39.501 -13c-18.667 0 -34 5.66699 -46 17s-18 25.333 -18 42
c0 32.667 30.667 66.667 92 102c26 14.667 46 26.667 60 36c72 46 125.5 97.667 160.5 155s52.5 121.666 52.5 192.999c0 58.667 -15.5 106 -46.5 142s-71.5 54 -121.5 54c-45.333 0 -83.333 -13.667 -114 -41s-46 -61.333 -46 -102c0 -27.333 7.66699 -49.833 23 -67.5
s34.333 -26.5 57 -26.5c13.333 0 26.333 2.16699 39 6.5s25.667 11.166 39 20.499c0 -3.33301 0.333008 -8 1 -14s1 -10.333 1 -13c0 -47.333 -15.5 -84.833 -46.5 -112.5s-72.833 -41.5 -125.5 -41.5c-48.667 0 -88.5 16.667 -119.5 50s-46.5 76 -46.5 128
c0 84.667 42.333 158.834 127 222.501s186.334 95.5 305.001 95.5c105.333 0 190 -24.667 254 -74s96 -114 96 -194c0 -71.333 -25 -135.5 -75 -192.5s-125.333 -106.833 -226 -149.5z" />
    <glyph glyph-name="four" unicode="4" horiz-adv-x="1128" 
d="M160 535h409l17 550zM369 -4l-0.000976562 82.002c89.333 3.33301 145 13.5 167 30.5s33 53.833 33 110.5v195h-532v125l680 864h145v-868h213v-121h-213v-201c0 -50.667 11.167 -84.834 33.5 -102.501s77.5 -28.834 165.5 -33.501v-81
c-43.333 1.33301 -89 2.33301 -137 3s-117 1 -207 1c-103.333 0 -178.166 -0.333008 -224.499 -1s-87.5 -1.66699 -123.5 -3z" />
    <glyph glyph-name="five" unicode="5" horiz-adv-x="1128" 
d="M219 1403h68.0029c36.667 -30 80.667 -52.5 132 -67.5s109 -22.5 173 -22.5c60 0 113 8.16699 159 24.5s78.333 38.166 97 65.499h76c-22 -102 -72 -181.833 -150 -239.5s-175.667 -86.5 -293 -86.5c-24.667 0 -51.834 1 -81.501 3s-61.167 5.33301 -94.5 10l-8 -324
c42 37.333 87.333 65.166 136 83.499s101 27.5 157 27.5c118 0 214.667 -37 290 -111s113 -169 113 -285c0 -149.333 -54.333 -272.333 -163 -369s-248.667 -145 -420 -145c-100 0 -183.833 21.333 -251.5 64s-101.5 92.334 -101.5 149.001c0 34.667 11.167 63.5 33.5 86.5
s50.166 34.5 83.499 34.5c28 0 53.833 -7.66699 77.5 -23s41.5 -35.666 53.5 -60.999c4 -8 9 -18.667 15 -32c37.333 -82.667 83.666 -124 138.999 -124c72 0 126.167 30.833 162.5 92.5s54.5 153.167 54.5 274.5c0 111.333 -15.833 191.333 -47.5 240s-83.5 73 -155.5 73
c-35.333 0 -66.333 -7.83301 -93 -23.5s-51 -40.5 -73 -74.5c0.666992 -11.333 1.16699 -22.666 1.5 -33.999s0.5 -24 0.5 -38c0 -20.667 -5.16699 -36.667 -15.5 -48s-24.833 -17 -43.5 -17c-23.333 0 -40.5 6.16699 -51.5 18.5s-16.5 32.166 -16.5 59.499
c0 4 2.16699 33.5 6.5 88.5s7.83301 109.5 10.5 163.5z" />
    <glyph glyph-name="six" unicode="6" horiz-adv-x="1128" 
d="M412 807c41.333 29.333 81.998 51 121.998 65s80.333 21 121 21c115.333 0 210.5 -39.833 285.5 -119.5s112.5 -181.167 112.5 -304.5c0 -146 -45.833 -266.167 -137.5 -360.5s-208.5 -141.5 -350.5 -141.5c-144 0 -259.5 57.5 -346.5 172.5s-130.5 268.5 -130.5 460.5
c0 248 52 444.833 156 590.5s244 218.5 420 218.5c96 0 173.5 -19 232.5 -57s88.5 -87.333 88.5 -148c0 -32 -11.667 -59 -35 -81s-52 -33 -86 -33c-25.333 0 -47.666 6.66699 -66.999 20s-38.666 36 -57.999 68c-6.66699 11.333 -15.667 28 -27 50
c-25.333 52.667 -55 79 -89 79c-75.333 0 -128.5 -35.333 -159.5 -106s-48.167 -202 -51.5 -394zM403.998 668c-1.33301 -24.667 -2.66699 -57.335 -4 -98.002c-3.33301 -79.333 -5 -130.666 -5 -153.999c0 -124.667 13.833 -215.667 41.5 -273s71.167 -86 130.5 -86
c60.667 0 103.834 26.833 129.501 80.5s38.5 145.834 38.5 276.501c0 136.667 -12.333 230.5 -37 281.5s-67.667 76.5 -129 76.5c-34.667 0 -67.334 -9.5 -98.001 -28.5s-53 -44.167 -67 -75.5z" />
    <glyph glyph-name="seven" unicode="7" horiz-adv-x="1128" 
d="M100 907l119 594.002h76c-4 -23.333 -6.66699 -40 -8 -50s-2 -18 -2 -24c0 -24.667 5.66699 -41 17 -49s42.333 -12 93 -12h627v-78c-88 -152.667 -160 -314 -216 -484s-98 -355.333 -126 -556c-16 -118.667 -37.667 -195.5 -65 -230.5s-70 -52.5 -128 -52.5
c-46.667 0 -82.5 13.667 -107.5 41s-37.5 66.333 -37.5 117c0 51.333 13.5 110.666 40.5 177.999s80.5 169.666 160.5 306.999l295 508h-455c-64 0 -108.333 -12.833 -133 -38.5s-48.667 -82.5 -72 -170.5h-78z" />
    <glyph glyph-name="eight" unicode="8" horiz-adv-x="1128" 
d="M694 840c28.667 28.667 50.501 62.168 65.501 100.501s22.5 79.833 22.5 124.5c0 77.333 -20.333 139 -61 185s-95.334 69 -164.001 69c-60 0 -108.833 -17.5 -146.5 -52.5s-56.5 -80.5 -56.5 -136.5c0 -93.333 109.333 -188.333 328 -285
c6 -2.66699 10 -4.33398 12 -5.00098zM455.001 618.001c-42.667 -33.333 -74.833 -74.1689 -96.5 -122.502s-32.5 -102.166 -32.5 -161.499c0 -86.667 21.5 -154.167 64.5 -202.5s102.5 -72.5 178.5 -72.5c78.667 0 140 21 184 63s66 100.333 66 175
c0 70 -26.5 128.833 -79.5 176.5s-147.833 95.834 -284.5 144.501zM379.002 669.998c-73.333 32 -129.833 78.001 -169.5 138.001s-59.5 128.667 -59.5 206c0 116.667 39.333 211 118 283s182.667 108 312 108c118.667 0 214.834 -29.667 288.501 -89
s110.5 -136.333 110.5 -231c0 -57.333 -17.333 -109.833 -52 -157.5s-86.334 -90.5 -155.001 -128.5c86 -38 149.833 -89.667 191.5 -155s62.5 -146.333 62.5 -243c0 -129.333 -43.5 -234 -130.5 -314s-201.167 -120 -342.5 -120c-134.667 0 -243.5 33.5 -326.5 100.5
s-124.5 153.833 -124.5 260.5c0 75.333 23.167 141.666 69.5 198.999s115.5 105 207.5 143z" />
    <glyph glyph-name="nine" unicode="9" horiz-adv-x="1128" 
d="M717 705c2 58.667 3.50195 108.999 4.50195 150.999s1.5 75.333 1.5 100c0 125.333 -13.833 216.833 -41.5 274.5s-71.167 86.5 -130.5 86.5c-60.667 0 -103.834 -27 -129.501 -81s-38.5 -146.667 -38.5 -278c0 -135.333 11.667 -228.166 35 -278.499
s63.666 -75.5 120.999 -75.5c41.333 0 78 9 110 27s54.667 42.667 68 74zM706.002 564.999c-38.667 -27.333 -77.498 -47.499 -116.498 -60.499s-79.833 -19.5 -122.5 -19.5c-120.667 0 -217.667 39.5 -291 118.5s-110 184.5 -110 316.5c0 138 46.333 253.333 139 346
s208.667 139 348 139c144 0 259.5 -57.5 346.5 -172.5s130.5 -268.5 130.5 -460.5c0 -252.667 -52.333 -450.334 -157 -593.001s-249.667 -214 -435 -214c-89.333 0 -162.5 19.167 -219.5 57.5s-85.5 86.833 -85.5 145.5c0 32.667 11.667 60 35 82s52 33 86 33
c25.333 0 47.666 -6.83301 66.999 -20.5s38.666 -36.167 57.999 -67.5c7.33301 -12 16.333 -29 27 -51c25.333 -52 55.333 -78 90 -78c74.667 0 127.5 35.167 158.5 105.5s48.167 201.5 51.5 393.5z" />
    <glyph glyph-name="colon" unicode=":" horiz-adv-x="678" 
d="M168 754c0 47.333 16.667 87.5 50 120.5s74 49.5 122 49.5s88.333 -16.5 121 -49.5s49 -73.167 49 -120.5c0 -46.667 -16.833 -86.667 -50.5 -120s-74.167 -50 -121.5 -50s-87.5 16.5 -120.5 49.5s-49.5 73.167 -49.5 120.5zM168 141c0 47.333 16.667 87.5 50 120.5
s74 49.5 122 49.5s88.333 -16.333 121 -49s49 -73 49 -121c0 -46.667 -16.833 -86.667 -50.5 -120s-74.167 -50 -121.5 -50s-87.5 16.667 -120.5 50s-49.5 73.333 -49.5 120z" />
    <glyph glyph-name="semicolon" unicode=";" horiz-adv-x="678" 
d="M158 -319c84 40.667 147.001 87.335 189.001 140.002s63.333 111.667 64 177c-15.333 -6.66699 -30 -11.334 -44 -14.001s-27.667 -4 -41 -4c-50 0 -88.833 14.667 -116.5 44s-41.5 69.666 -41.5 120.999c0 47.333 16.333 86.833 49 118.5s73.667 47.5 123 47.5
c59.333 0 106.666 -22.167 141.999 -66.5s53 -104.833 53 -181.5c0 -103.333 -28.667 -192 -86 -266s-145 -134.667 -263 -182zM168.001 754.001c0 47.333 16.667 87.5 50 120.5s74 49.5 122 49.5s88.333 -16.5 121 -49.5s49 -73.167 49 -120.5
c0 -46.667 -16.833 -86.667 -50.5 -120s-74.167 -50 -121.5 -50s-87.5 16.5 -120.5 49.5s-49.5 73.167 -49.5 120.5z" />
    <glyph glyph-name="less" unicode="&#x3c;" horiz-adv-x="1706" 
d="M1442 1194v-219l-893 -365l893 -364v-219l-1178 485v199z" />
    <glyph glyph-name="equal" unicode="=" horiz-adv-x="1706" 
d="M254 496h1198v-199h-1198v199zM254 926h1198v-199h-1198v199z" />
    <glyph glyph-name="greater" unicode="&#x3e;" horiz-adv-x="1706" 
d="M264 1194l1178 -483v-199l-1178 -485v219l895 364l-895 365v219z" />
    <glyph glyph-name="question" unicode="?" horiz-adv-x="897" 
d="M166 141c0 48 16.333 88.333 49 121s73 49 121 49c47.333 0 87.5 -16.333 120.5 -49s49.5 -73 49.5 -121c0 -46.667 -16.5 -86.667 -49.5 -120s-73.167 -50 -120.5 -50s-87.5 16.667 -120.5 50s-49.5 73.333 -49.5 120zM293 446l-0.000976562 416.002
c10 -1.33301 21.667 -2.33301 35 -3s35 -1 65 -1c110 0 188.333 12.667 235 38s70 66.666 70 123.999c0 56 -17.5 101.333 -52.5 136s-81.5 52 -139.5 52c-26 0 -62.833 -4.33301 -110.5 -13s-83.167 -13 -106.5 -13c-43.333 0 -76.666 9.83301 -99.999 29.5
s-35 47.167 -35 82.5c0 36.667 13.833 64 41.5 82s69.834 27 126.501 27c42.667 0 85 -6.16699 127 -18.5s84 -30.833 126 -55.5c73.333 -42.667 133 -101.834 179 -177.501s69 -152.167 69 -229.5c0 -102.667 -31.667 -180 -95 -232s-158 -78 -284 -78
c-16.667 0 -29.334 0.166992 -38.001 0.5s-17 0.833008 -25 1.5v-168h-88z" />
    <glyph glyph-name="at" unicode="@" horiz-adv-x="2019" 
d="M1176 319c-41.333 -66.667 -86.1699 -116.008 -134.503 -148.008s-101.833 -48 -160.5 -48c-94.667 0 -168.834 30.333 -222.501 91s-80.5 144.334 -80.5 251.001c0 76 16.667 149.833 50 221.5s81.333 137.167 144 196.5c46 42.667 95.333 75.167 148 97.5
s106.334 33.5 161.001 33.5c64 0 114.167 -15 150.5 -45s60.166 -76 71.499 -138l49 164h190l-174 -618l-2 -7c-9.33301 -38.667 -14 -67.667 -14 -87c0 -31.333 6.83301 -56 20.5 -74s31.834 -27 54.501 -27c22 0 50.333 8.33301 85 25s67.334 37.667 98.001 63
c68.667 58.667 121.334 131 158.001 217s55 181 55 285c0 183.333 -62.833 332 -188.5 446s-288.834 171 -489.501 171c-92 0 -179.333 -12.667 -262 -38s-158.667 -62.666 -228 -111.999c-115.333 -80.667 -204.166 -183.5 -266.499 -308.5s-93.5 -263.833 -93.5 -416.5
c0 -223.333 70.167 -400.666 210.5 -531.999s328.833 -197 565.5 -197c110.667 0 217.167 16.833 319.5 50.5s204.833 85.834 307.5 156.501l39 -51c-100.667 -75.333 -206.667 -131.833 -318 -169.5s-227.333 -56.5 -348 -56.5c-124.667 0 -240.5 15.333 -347.5 46
s-199.5 75 -277.5 133c-100.667 74.667 -178 167.167 -232 277.5s-81 231.5 -81 363.5c0 103.333 17.333 202.833 52 298.5s85.667 183.834 153 264.501c96.667 116 212.167 205 346.5 267s279.5 93 435.5 93c232.667 0 418.834 -63 558.501 -189s209.5 -293.667 209.5 -503
c0 -107.333 -19.667 -207.166 -59 -299.499s-96 -172.166 -170 -239.499c-39.333 -35.333 -81.5 -62.166 -126.5 -80.499s-90.833 -27.5 -137.5 -27.5c-65.333 0 -117 17.333 -155 52s-59.333 84 -64 148zM1118 947.992c-41.333 0 -78.834 -14.832 -112.501 -44.499
s-67.167 -77.5 -100.5 -143.5c-38 -76 -67 -147.667 -87 -215s-30 -128.333 -30 -183c0 -52.667 11.5 -94.5 34.5 -125.5s53.833 -46.5 92.5 -46.5c42.667 0 84.167 20.667 124.5 62s78.833 102 115.5 182c26.667 61.333 47.667 123.166 63 185.499s23 116.5 23 162.5
c0 53.333 -10.667 94.333 -32 123s-51.666 43 -90.999 43z" />
    <glyph glyph-name="A" unicode="A" horiz-adv-x="1456" 
d="M-8 -6v83.999c48.667 4 89.5 18.667 122.5 44s60.5 64 82.5 116l493 1163h103l460 -1159c24 -59.333 51 -100.5 81 -123.5s72 -36.5 126 -40.5v-84c-59.333 2 -118.666 3.5 -177.999 4.5s-118 1.5 -176 1.5s-116.167 -0.5 -174.5 -1.5s-117.5 -2.5 -177.5 -4.5v84
c74 3.33301 122.167 10.666 144.5 21.999s33.5 31.333 33.5 60c0 15.333 -3.66699 36.833 -11 64.5s-17.333 57.834 -30 90.501l-41 109h-459l-35 -80c-12 -29.333 -21.833 -58.166 -29.5 -86.499s-11.5 -50.833 -11.5 -67.5c0 -38.667 13.667 -67 41 -85
s69.666 -27 126.999 -27v-84c-43.333 2 -86 3.5 -128 4.5s-83.333 1.5 -124 1.5c-39.333 0 -79 -0.5 -119 -1.5s-80 -2.5 -120 -4.5zM434 523.999h377l-180 477z" />
    <glyph glyph-name="B" unicode="B" horiz-adv-x="1458" 
d="M588 774c5.33301 0 13.332 -0.333008 23.999 -1s18.334 -1 23.001 -1c100 0 171.333 20.667 214 62s64 110.666 64 207.999c0 80 -20.667 139.333 -62 178s-104.333 58 -189 58c-30.667 0 -50.667 -2.16699 -60 -6.5s-14 -15.166 -14 -32.499v-465zM587.999 676
l-0.000976562 -344c0 -87.333 11.833 -148.166 35.5 -182.499s65.167 -51.5 124.5 -51.5c76.667 0 134 24.167 172 72.5s57 121.166 57 218.499c0 100 -25.833 173.167 -77.5 219.5s-133.167 69.5 -244.5 69.5c-17.333 0 -30.666 -0.166992 -39.999 -0.5
s-18.333 -0.833008 -27 -1.5zM77.998 -8l-0.00292969 88c76 1.33301 127 14.5 153 39.5s39 74.5 39 148.5v850c0 71.333 -12.833 118.333 -38.5 141s-76.834 34.667 -153.501 36v83c53.333 -4 101 -7 143 -9s79 -3 111 -3c44 0 105.333 2 184 6s135.334 6 170.001 6
c189.333 0 330.833 -27.333 424.5 -82s140.5 -137 140.5 -247c0 -85.333 -31.833 -154.666 -95.5 -207.999s-156.5 -88.666 -278.5 -105.999c154.667 -18.667 270.334 -58.834 347.001 -120.501s115 -144.834 115 -249.501c0 -122 -51.167 -214.667 -153.5 -278
s-253.166 -95 -452.499 -95c-35.333 0 -95.166 1.66699 -179.499 5s-150.833 5 -199.5 5c-37.333 0 -78.333 -0.833008 -123 -2.5s-95.667 -4.16699 -153 -7.5z" />
    <glyph glyph-name="C" unicode="C" horiz-adv-x="1456" 
d="M1264 479l86.002 -0.000976562v-479h-84l-45 117c-70 -52.667 -141.5 -91.5 -214.5 -116.5s-150.5 -37.5 -232.5 -37.5c-207.333 0 -375.833 64.5 -505.5 193.5s-194.5 296.5 -194.5 502.5c0 88 11.333 169.667 34 245s57 144 103 206
c71.333 96 156.166 168.5 254.499 217.5s208.166 73.5 329.499 73.5c78 0 150.167 -10.667 216.5 -32s127.833 -53.666 184.5 -96.999l35 114h90l12 -442h-86c-30 112 -78.833 199 -146.5 261s-147.167 93 -238.5 93c-128 0 -230.333 -55.167 -307 -165.5
s-115 -259.833 -115 -448.5s37 -335.5 111 -440.5s176.333 -157.5 307 -157.5c104 0 190.5 33.5 259.5 100.5s117.833 164.5 146.5 292.5z" />
    <glyph glyph-name="D" unicode="D" horiz-adv-x="1571" 
d="M598 307c0 -76.667 14.668 -130.667 44.001 -162s79 -47 149 -47c118 0 204.833 46.5 260.5 139.5s83.5 238.5 83.5 436.5c0 216 -36 371 -108 465s-189 141 -351 141c-28.667 0 -48.834 -4 -60.501 -12s-17.5 -21.667 -17.5 -41v-920zM84.001 -6l-0.00195312 85.002
c76 2 126 15 150 39s36 74 36 150v830c0 82 -12.5 134.833 -37.5 158.5s-74.5 35.5 -148.5 35.5v82c27.333 -1.33301 57.5 -2.33301 90.5 -3s82.833 -1 149.5 -1c38 0 95 0.666992 171 2s132.333 2 169 2c271.333 0 477.666 -61.833 618.999 -185.5s212 -304.167 212 -541.5
c0 -105.333 -17.333 -199.5 -52 -282.5s-87 -155.5 -157 -217.5c-62.667 -54.667 -135.167 -93.834 -217.5 -117.501s-193.5 -35.5 -333.5 -35.5c-39.333 0 -100.166 1 -182.499 3s-144.833 3 -187.5 3c-35.333 0 -85.166 -0.833008 -149.499 -2.5
s-108.166 -2.83398 -131.499 -3.50098z" />
    <glyph glyph-name="E" unicode="E" horiz-adv-x="1354" 
d="M72 -10l-0.00390625 85.998c76.667 0 127.834 15.833 153.501 47.5s38.5 105.167 38.5 220.5v758c0 74.667 -12.833 126.334 -38.5 155.001s-71.5 43 -137.5 43h-16v80c72 -4 142.833 -7 212.5 -9s138.834 -3 207.501 -3c104 0 215.833 1 335.5 3s244.5 5 374.5 9v-358
h-84c-22.667 99.333 -60 166.5 -112 201.5s-154 52.5 -306 52.5c-53.333 0 -85.666 -3.5 -96.999 -10.5s-17 -24.833 -17 -53.5v-450h35c79.333 0 137.333 16.333 174 49s63 92.667 79 180h86c-3.33301 -38 -5.83301 -78.5 -7.5 -121.5s-2.5 -91.833 -2.5 -146.5
c0 -47.333 0.833008 -94.5 2.5 -141.5s4.16699 -94.833 7.5 -143.5h-81c-15.333 86 -42.333 145.833 -81 179.5s-100.667 50.5 -186 50.5h-26v-367c0 -71.333 18 -122.666 54 -153.999s95.667 -47 179 -47c124.667 0 215.334 22.667 272.001 68s95.667 125.333 117 240h76
v-416c-106 2.66699 -213.667 4.66699 -323 6s-251.333 2 -426 2h-121c-95.333 0 -166.5 -0.833008 -213.5 -2.5s-89.833 -4.16699 -128.5 -7.5z" />
    <glyph glyph-name="F" unicode="F" horiz-adv-x="1241" 
d="M66 -8l0.00488281 84.002c81.333 2.66699 135.333 17.667 162 45s40 88.666 40 183.999v787c0 79.333 -13.667 132.5 -41 159.5s-81 41.167 -161 42.5v84c74 -3.33301 157.833 -5.83301 251.5 -7.5s206.834 -2.5 339.501 -2.5c108.667 0 207.5 0.666992 296.5 2
s171.833 3.33301 248.5 6l12 -358h-84c-15.333 96 -53.5 162.667 -114.5 200s-169.5 56 -325.5 56c-44.667 0 -73.834 -4.83301 -87.501 -14.5s-20.5 -29.5 -20.5 -59.5v-448h34c77.333 0 135.833 18.167 175.5 54.5s65.167 95.166 76.5 176.499h88v-30
c-2.66699 -121.333 -4 -207.666 -4 -258.999c0 -44.667 0.333008 -89.334 1 -134.001s1.66699 -90.667 3 -138h-88c-12 88 -36.5 149.5 -73.5 184.5s-94.833 52.5 -173.5 52.5c-4 0 -10.333 -0.333008 -19 -1s-15.334 -1 -20.001 -1v-358c0 -98 14 -158.833 42 -182.5
s85.333 -37.167 172 -40.5l1 -84c-32.667 2.66699 -70.334 4.66699 -113.001 6s-92.334 2 -149.001 2c-138.667 -0 -244.834 -0.666992 -318.501 -2s-123.834 -3.33301 -150.501 -6z" />
    <glyph glyph-name="G" unicode="G" horiz-adv-x="1593" 
d="M940 588l643.002 -0.000976562v-80c-57.333 0 -96.5 -8.66699 -117.5 -26s-31.5 -49 -31.5 -95v-278h-15c-32.667 0 -67.334 -3.5 -104.001 -10.5s-73.334 -17.167 -110.001 -30.5l-67 -25c-136.667 -53.333 -256 -80 -358 -80c-208 0 -377.333 63.5 -508 190.5
s-196 292.167 -196 495.5c0 86 10.5 166.333 31.5 241s52.833 143.334 95.5 206.001c68.667 101.333 151 177.833 247 229.5s204 77.5 324 77.5c82 0 158 -10.833 228 -32.5s136.667 -55.167 200 -100.5l33 110h94l12 -430h-90c-26 112 -73.167 197.333 -141.5 256
s-154.166 88 -257.499 88c-130 0 -231.5 -56 -304.5 -168s-109.5 -268.333 -109.5 -469c0 -180 35.167 -321.833 105.5 -425.5s166.166 -155.5 287.499 -155.5c87.333 0 155 18.5 203 55.5s72 88.833 72 155.5v92c0 44 -11.667 76.5 -35 97.5s-59.333 31.5 -108 31.5h-23v80
z" />
    <glyph glyph-name="H" unicode="H" horiz-adv-x="1790" 
d="M76 -6l0.000976562 82c78.667 2 130 14.833 154 38.5s36 77.5 36 161.5v832c0 78.667 -12 128.667 -36 150s-71.333 32 -142 32h-12v84c69.333 -2 133.166 -3.5 191.499 -4.5s111.833 -1.5 160.5 -1.5c48 0 101.667 0.5 161 1.5s123.666 2.5 192.999 4.5v-84h-22
c-61.333 0 -104.666 -13.667 -129.999 -41s-38 -74.333 -38 -141v-354h606v354c0 80 -12.5 130.167 -37.5 150.5s-75.833 30.833 -152.5 31.5v84c62.667 -2 126.5 -3.5 191.5 -4.5s149.167 -1.5 252.5 -1.5c78.667 0 135.5 0.5 170.5 1.5s65.5 2.5 91.5 4.5v-84h-8
c-68.667 0 -116.167 -12.667 -142.5 -38s-39.5 -73.333 -39.5 -144v-832c0 -76.667 13.667 -129 41 -157s77 -42.667 149 -44v-81c-76.667 2 -144.667 3.5 -204 4.5s-109.333 1.5 -150 1.5c-45.333 0 -97.333 -0.5 -156 -1.5s-124 -2.5 -196 -4.5v82
c78 2 129.167 14.833 153.5 38.5s36.5 77.5 36.5 161.5v373h-606v-373c0 -74.667 13.5 -126 40.5 -154s76.833 -43.333 149.5 -46v-82c-80.667 2 -150.667 3.5 -210 4.5s-107.333 1.5 -144 1.5c-47.333 0 -100.333 -0.5 -159 -1.5s-123 -2.5 -193 -4.5z" />
    <glyph glyph-name="I" unicode="I" horiz-adv-x="895" 
d="M88 -6v81c80 2.66699 132.5 16 157.5 40s37.5 77.667 37.5 161v832c0 75.333 -11.833 124.5 -35.5 147.5s-69.834 34.5 -138.501 34.5h-21v84c66.667 -2 130.167 -3.5 190.5 -4.5s117.166 -1.5 170.499 -1.5c56 0 114.167 0.5 174.5 1.5s122.166 2.5 185.499 4.5v-84h-23
c-62.667 0 -107 -13.5 -133 -40.5s-39 -74.167 -39 -141.5v-832c0 -76 13.333 -127.5 40 -154.5s78.334 -42.5 155.001 -46.5v-81c-82 2 -153.167 3.5 -213.5 4.5s-109.166 1.5 -146.499 1.5c-49.333 0 -104.166 -0.5 -164.499 -1.5s-125.833 -2.5 -196.5 -4.5z" />
    <glyph glyph-name="J" unicode="J" horiz-adv-x="897" 
d="M313 -223v1276c0 105.333 -13.167 170.666 -39.5 195.999s-81.833 39.666 -166.5 42.999l-1 84c37.333 -2.66699 78.833 -4.66699 124.5 -6s116.834 -2 213.501 -2c85.333 0 158.833 0.666992 220.5 2s115.167 3.33301 160.5 6v-84c-74 -2 -123.5 -15.667 -148.5 -41
s-37.5 -77.666 -37.5 -156.999v-1049c0 -222.667 -35.167 -379 -105.5 -469s-189.5 -135 -357.5 -135c-103.333 0 -185.833 18.667 -247.5 56s-92.5 87 -92.5 149c0 35.333 11.667 64.333 35 87s53.333 34 90 34c29.333 0 55 -9.83301 77 -29.5s40.667 -49.5 56 -89.5l5 -13
c22.667 -61.333 54 -92 94 -92c43.333 0 74.166 17.667 92.499 53s27.5 95.666 27.5 180.999z" />
    <glyph glyph-name="K" unicode="K" horiz-adv-x="1577" 
d="M72 -8l-0.00390625 86c74.667 2 125 15 151 39s39 71.667 39 143v858c0 68.667 -13.333 115.667 -40 141s-76.667 39.333 -150 42v75c50 -2.66699 103.667 -4.66699 161 -6s121 -2 191 -2c58.667 0 115.834 0.666992 171.501 2s110.5 3.33301 164.5 6v-80h-15
c-62 0 -104.333 -13.5 -127 -40.5s-34 -83.167 -34 -168.5v-448l188 215c96.667 109.333 164.5 191.666 203.5 246.999s58.5 96 58.5 122c0 25.333 -12.167 44.166 -36.5 56.499s-61.166 18.5 -110.499 18.5v78c41.333 -2.66699 83.833 -4.66699 127.5 -6
s100.834 -2 171.501 -2c42.667 0 82.167 0.666992 118.5 2s71.166 3.33301 104.499 6v-77c-49.333 -2 -92.833 -13.167 -130.5 -33.5s-79.5 -57.166 -125.5 -110.499l-254 -295l514 -665c28 -37.333 56.833 -65.5 86.5 -84.5s60.167 -29.167 91.5 -30.5v-88
c-64.667 2.66699 -125.667 4.66699 -183 6s-109.666 2 -156.999 2c-67.333 0 -130 -0.666992 -188 -2s-112.667 -3.33301 -164 -6v86h27c37.333 0 66.333 5.5 87 16.5s31 26.5 31 46.5c0 11.333 -2.83301 24.333 -8.5 39s-13.5 28.334 -23.5 41.001l-312 414l-116 -137v-228
c0 -84.667 12.167 -137.167 36.5 -157.5s74.166 -31.833 149.499 -34.5v-86c-39.333 2.66699 -86.666 4.66699 -141.999 6s-122.666 2 -201.999 2c-81.333 -0 -150.333 -0.666992 -207 -2s-105.667 -3.33301 -147 -6z" />
    <glyph glyph-name="L" unicode="L" horiz-adv-x="1354" 
d="M70 -6v83.999h16c66 0 111.167 14.167 135.5 42.5s36.5 82.5 36.5 162.5v847c0 62 -12.833 104.5 -38.5 127.5s-72.167 34.5 -139.5 34.5h-10v82c66.667 -2 129.5 -3.5 188.5 -4.5s114.167 -1.5 165.5 -1.5c38 0 87 0.5 147 1.5s129.667 2.5 209 4.5v-82h-12
c-72.667 0 -121.5 -11.667 -146.5 -35s-37.5 -69.666 -37.5 -138.999v-749c0 -106.667 18 -178.5 54 -215.5s104 -55.5 204 -55.5c115.333 0 204.5 24.833 267.5 74.5s104.833 127.5 125.5 233.5h84l-9 -412c-102 2 -205.333 3.5 -310 4.5s-210 1.5 -316 1.5
c-72.667 0 -151.5 -0.5 -236.5 -1.5s-175.833 -2.5 -272.5 -4.5c-6 0 -14.833 -0.333008 -26.5 -1s-20.167 -1 -25.5 -1c-6 0 -14.833 0.333008 -26.5 1s-20.5 1 -26.5 1z" />
    <glyph glyph-name="M" unicode="M" horiz-adv-x="1913" 
d="M84 -6l0.000976562 82.999c70 2.66699 117.833 23 143.5 61s38.5 116.333 38.5 235v858c-16 21.333 -38.5 37.333 -67.5 48s-67.167 17.334 -114.5 20.001v75c20.667 -2 44.5 -3.5 71.5 -4.5s69.5 -1.5 127.5 -1.5c46.667 0 93.5 0.5 140.5 1.5s94.833 2.5 143.5 4.5
l402 -952l379 952c32 -2 63.833 -3.5 95.5 -4.5s63.167 -1.5 94.5 -1.5c54.667 0 144.667 2.33301 270 7c16 0.666992 27.667 1 35 1v-79c-79.333 -1.33301 -133 -15 -161 -41s-42 -80.667 -42 -164v-836c0 -69.333 13.833 -116.166 41.5 -140.499s81.5 -38.5 161.5 -42.5
v-81c-68.667 2.66699 -135 4.66699 -199 6s-125.333 2 -184 2c-73.333 0 -133.166 -0.5 -179.499 -1.5s-91.5 -2.5 -135.5 -4.5v82c76 7.33301 125.667 21.833 149 43.5s35 74.834 35 159.501v751l-420 -1034h-96l-438 1061v-684c0 -114.667 13.333 -191.834 40 -231.501
s76 -61.834 148 -66.501v-83c-50.667 2.66699 -96.834 4.66699 -138.501 6s-76.834 2 -105.501 2c-56 0 -101 -0.5 -135 -1.5s-67.333 -2.5 -100 -4.5z" />
    <glyph glyph-name="N" unicode="N" horiz-adv-x="1688" 
d="M82 -8l-0.000976562 86.001c71.333 8 120.166 28.833 146.499 62.5s39.5 95.5 39.5 185.5v862l-24 31c-21.333 26 -44.666 44.5 -69.999 55.5s-60 17.5 -104 19.5v80c20 -2 43.333 -3.5 70 -4.5s70 -1.5 130 -1.5c58 0 103.833 0.5 137.5 1.5s65.834 2.5 96.501 4.5
l817 -934v613c0 88 -14.5 150 -43.5 186s-77.833 54.333 -146.5 55v80c49.333 -2 93.5 -3.5 132.5 -4.5s73.167 -1.5 102.5 -1.5c26 0 59.5 0.5 100.5 1.5s91.5 2.5 151.5 4.5v-79c-72 -5.33301 -121.333 -25 -148 -59s-40 -98.667 -40 -194v-1075h-115l-934 1092v-733
c0 -84.667 15 -146.834 45 -186.501s77.667 -60.167 143 -61.5v-84c-46 2 -92.333 3.5 -139 4.5s-102.667 1.5 -168 1.5c-36.667 -0 -69.5 -0.666992 -98.5 -2s-56.167 -3.33301 -81.5 -6z" />
    <glyph glyph-name="O" unicode="O" horiz-adv-x="1706" 
d="M446 678c0 -201.333 35.333 -353.666 106 -456.999s174.667 -155 312 -155c136 0 236.333 50.167 301 150.5s97 256.166 97 467.499c0 203.333 -35.333 357.666 -106 462.999s-174.667 158 -312 158c-136.667 0 -237.167 -50.667 -301.5 -152
s-96.5 -259.666 -96.5 -474.999zM838 -35c-227.333 0 -411.166 66.498 -551.499 199.498s-210.5 306.167 -210.5 519.5s72 386.833 216 520.5s332 200.5 564 200.5c117.333 0 222.333 -17 315 -51s176 -86 250 -156c70.667 -67.333 123.5 -143.5 158.5 -228.5
s52.5 -178.833 52.5 -281.5c0 -105.333 -18.333 -201.166 -55 -287.499s-92 -163.166 -166 -230.499c-74.667 -68.667 -159.334 -120 -254.001 -154s-201 -51 -319 -51z" />
    <glyph glyph-name="P" unicode="P" horiz-adv-x="1356" 
d="M588 719c6 -0.666992 12.835 -1.16699 20.502 -1.5s19.167 -0.5 34.5 -0.5c108.667 0 186.667 22.667 234 68s71 120.333 71 225c0 85.333 -21.333 150.333 -64 195s-105.334 67 -188.001 67c-42.667 0 -71.334 -3.83301 -86.001 -11.5s-22 -22.167 -22 -43.5v-498z
M84.002 -6l0.000976562 83.9971c71.333 4.66699 119.166 18.334 143.499 41.001s36.5 64.334 36.5 125.001v880c0 65.333 -11.333 108.333 -34 129s-71.334 34 -146.001 40v79c29.333 -2 60 -3.5 92 -4.5s75.667 -1.5 131 -1.5c23.333 0 74.166 0.666992 152.499 2
s144.833 2 199.5 2c224 0 386.5 -29.167 487.5 -87.5s151.5 -151.166 151.5 -278.499c0 -132.667 -49.5 -230.5 -148.5 -293.5s-252.833 -94.5 -461.5 -94.5c-26.667 0 -47 0.166992 -61 0.5s-27 0.833008 -39 1.5v-364c0 -68.667 13.667 -115.167 41 -139.5
s78.333 -36.5 153 -36.5h13l-1 -84c-61.333 2 -131.166 3.5 -209.499 4.5s-165.166 1.5 -260.499 1.5c-73.333 0 -125.833 -0.5 -157.5 -1.5s-59.167 -2.5 -82.5 -4.5z" />
    <glyph glyph-name="Q" unicode="Q" horiz-adv-x="1706" 
d="M446 686c0 -198 37.001 -353.333 111.001 -466s175 -169 303 -169c134.667 0 235.667 52.5 303 157.5s101 262.833 101 473.5c0 203.333 -34.5 358.333 -103.5 465s-169.167 160 -300.5 160c-130.667 0 -232.334 -54.5 -305.001 -163.5s-109 -261.5 -109 -457.5z
M699.001 -164c8.66699 0.666992 18.5059 1.1709 29.5059 1.50391s27.5 0.5 49.5 0.5c62 0 118.5 -3.83301 169.5 -11.5s99.167 -19.5 144.5 -35.5l80 -30c103.333 -41.333 183.666 -62 240.999 -62c35.333 0 66.166 4.16699 92.499 12.5s48.166 20.5 65.499 36.5
c13.333 12.667 28.333 28.5 45 47.5s28.334 28.5 35.001 28.5c9.33301 0 16.666 -3.83301 21.999 -11.5s8 -18.167 8 -31.5c0 -96.667 -33.667 -178.834 -101 -246.501s-152.333 -101.5 -255 -101.5c-103.333 0 -221.333 52 -354 156l-31 24
c-70.667 55.333 -128.334 92.666 -173.001 111.999s-90 29 -136 29c-64.667 0 -128.334 -14.667 -191.001 -44s-96 -44 -100 -44c-16.667 0 -30.667 5.83301 -42 17.5s-17 25.834 -17 42.501c0 30.667 61.167 65.5 183.5 104.5s230.166 83.833 323.499 134.5
c-212.667 13.333 -384.5 85.666 -515.5 216.999s-196.5 296.666 -196.5 495.999c0 96 18.667 188.667 56 278s90.333 167.333 159 234c70 67.333 154.833 119.666 254.5 156.999s204.5 56 314.5 56c110.667 0 215 -18.833 313 -56.5s182.667 -91.167 254 -160.5
c65.333 -64.667 116.5 -141.667 153.5 -231s55.5 -181 55.5 -275c0 -99.333 -19.333 -191.5 -58 -276.5s-97 -162.167 -175 -231.5c-94.667 -84 -327 -195 -697 -333z" />
    <glyph glyph-name="R" unicode="R" horiz-adv-x="1489" 
d="M580 713c8 -0.666992 17.001 -1.16699 27.001 -1.5s24 -0.5 42 -0.5c107.333 0 186.166 23 236.499 69s75.5 117.667 75.5 215c0 100 -23.167 173.167 -69.5 219.5s-119.5 69.5 -219.5 69.5c-38.667 0 -63.667 -5 -75 -15s-17 -31.667 -17 -65v-491zM56.001 -6
l-1.00391 85.998c84.667 0 141 13 169 39s42 79.333 42 160v847c0 68.667 -13.5 113.667 -40.5 135s-83.833 32.666 -170.5 33.999v81c37.333 -1.33301 75.166 -2.33301 113.499 -3s89.5 -1 153.5 -1c42 0 109.667 1 203 3s166 3 218 3
c192.667 0 334.834 -28.167 426.501 -84.5s137.5 -144.166 137.5 -263.499c0 -92 -29.667 -168.167 -89 -228.5s-143.666 -99.5 -252.999 -117.5c34.667 -14.667 88.667 -73 162 -175l20 -28l199 -278c28.667 -41.333 58.834 -73.166 90.501 -95.499
s64.834 -35.5 99.501 -39.5v-76c-29.333 2.66699 -66.833 4.66699 -112.5 6s-95.5 2 -149.5 2c-26.667 0 -53.167 -0.5 -79.5 -1.5s-52.5 -2.5 -78.5 -4.5l-330 473c-45.333 66 -80.166 108.167 -104.499 126.5s-51.5 27.5 -81.5 27.5c-2 0 -5.16699 -0.5 -9.5 -1.5
s-7.83301 -1.5 -10.5 -1.5v-352c0 -71.333 13.333 -120.166 40 -146.499s76.667 -39.5 150 -39.5h10v-86c-114 2 -208.833 3.5 -284.5 4.5s-132.167 1.5 -169.5 1.5c-67.333 0 -120.5 -0.5 -159.5 -1.5s-75.833 -2.5 -110.5 -4.5z" />
    <glyph glyph-name="S" unicode="S" horiz-adv-x="1124" 
d="M82 0c2 33.333 3.5 66.3379 4.5 99.0049s1.5 66 1.5 100c0 44.667 -0.5 86.5 -1.5 125.5s-2.5 75.5 -4.5 109.5h94c28.667 -122 73.167 -213.5 133.5 -274.5s136.166 -91.5 227.499 -91.5c76.667 0 137.334 19.833 182.001 59.5s67 93.5 67 161.5
c0 53.333 -16.667 98 -50 134s-110.666 81.333 -231.999 136c-150.667 67.333 -255 135.166 -313 203.499s-87 153.5 -87 255.5c0 116 38 209.5 114 280.5s176 106.5 300 106.5c71.333 0 133.666 -8.5 186.999 -25.5s102.333 -44.167 147 -81.5l25 88h96
c0 -66.667 0.666992 -131.834 2 -195.501s3.33301 -126.834 6 -189.501h-92c-20 95.333 -60.667 170.166 -122 224.499s-135.333 81.5 -222 81.5c-60.667 0 -109.667 -17.167 -147 -51.5s-56 -78.833 -56 -133.5c0 -76 75 -148.333 225 -217c4 -2 7 -3.33301 9 -4
c201.333 -92 332.5 -172.333 393.5 -241s91.5 -154.334 91.5 -257.001c0 -131.333 -44.667 -236.833 -134 -316.5s-208 -119.5 -356 -119.5c-80.667 0 -150.167 10.667 -208.5 32s-111.5 55 -159.5 101l-25 -100h-96z" />
    <glyph glyph-name="T" unicode="T" horiz-adv-x="1464" 
d="M567 244l0.00195312 1015c-10.667 1.33301 -21.834 2.16602 -33.501 2.49902s-28.5 0.5 -50.5 0.5c-114.667 0 -197.5 -20.833 -248.5 -62.5s-84.833 -115.167 -101.5 -220.5h-82l17 395c70.667 -3.33301 148.5 -5.83301 233.5 -7.5s185.167 -2.5 300.5 -2.5
c164 0 310.5 0.666992 439.5 2s246.833 3.33301 353.5 6l18 -393h-80c-16.667 103.333 -50.834 176.666 -102.501 219.999s-131.5 65 -239.5 65c-18.667 0 -49 -1.33301 -91 -4h-7v-1016c0 -64.667 14.333 -108.334 43 -131.001s84.667 -35.334 168 -38.001v-83
c-54 2.66699 -109.5 4.66699 -166.5 6s-116.167 2 -177.5 2c-56 0 -117.5 -0.666992 -184.5 -2s-136.5 -3.33301 -208.5 -6v84c82 4 135.833 16.833 161.5 38.5s38.5 64.834 38.5 129.501z" />
    <glyph glyph-name="U" unicode="U" horiz-adv-x="1692" 
d="M254 555l-0.00195312 499.995c0 97.333 -12.667 160.333 -38 189s-76.666 45.334 -153.999 50.001v80c60.667 -2 120 -3.5 178 -4.5s113.333 -1.5 166 -1.5c64 0 126.5 0.666992 187.5 2s121.167 3.33301 180.5 6v-81c-80 -5.33301 -133.167 -22.166 -159.5 -50.499
s-39.5 -86.833 -39.5 -175.5v-532c0 -158.667 26.833 -270.5 80.5 -335.5s144.5 -97.5 272.5 -97.5c76 0 143 11.833 201 35.5s102.333 57.167 133 100.5c24.667 36 42.334 80 53.001 132s16 126 16 222v471c0 83.333 -13.5 141.333 -40.5 174s-76.833 52.334 -149.5 59.001
v76c38 -2 77.167 -3.5 117.5 -4.5s81.5 -1.5 123.5 -1.5c50.667 0 96.667 0.5 138 1.5s77.333 2.5 108 4.5v-80c-70.667 -8 -119.334 -28.333 -146.001 -61s-40 -88.667 -40 -168v-471c0 -109.333 -7 -195.666 -21 -258.999s-37 -118.333 -69 -165
c-46.667 -67.333 -112.5 -118.666 -197.5 -153.999s-185.167 -53 -300.5 -53c-110.667 0 -205.167 13.333 -283.5 40s-144.833 68 -199.5 124c-41.333 42 -71.166 96.5 -89.499 163.5s-27.5 155.167 -27.5 264.5z" />
    <glyph glyph-name="V" unicode="V" horiz-adv-x="1452" 
d="M0 1374c54.667 -2.66699 108.505 -4.66309 161.505 -5.99609s103.5 -2 151.5 -2c35.333 0 113.666 1.33301 234.999 4c69.333 2 123.333 3.33301 162 4l1 -84h-15c-58.667 0 -100.167 -7 -124.5 -21s-36.5 -37.667 -36.5 -71c0 -8 2.66699 -22 8 -42
s12.666 -43 21.999 -69l269 -712l223 565c19.333 50.667 34.666 98 45.999 142s17 78 17 102c0 39.333 -12.333 66.666 -37 81.999s-70.334 23.666 -137.001 24.999l1 83c69.333 -3.33301 122.666 -5.5 159.999 -6.5s72.333 -1.5 105 -1.5s67.5 0.5 104.5 1.5
s86.833 3.16699 149.5 6.5v-84c-59.333 -3.33301 -105.333 -17.833 -138 -43.5s-67.667 -84.834 -105 -177.501l-451 -1102h-100l-467 1174c-23.333 59.333 -49 98.166 -77 116.499s-70.667 28.833 -128 31.5v85z" />
    <glyph glyph-name="W" unicode="W" horiz-adv-x="2030" 
d="M29 1376c56.667 -3.33301 112.172 -5.83301 166.505 -7.5s107.833 -2.5 160.5 -2.5c58 0 103.167 0.333008 135.5 1s63.166 1.66699 92.499 3c24.667 0 64.667 1.33301 120 4h7v-77c-64 -2.66699 -108 -11.667 -132 -27s-36 -41.333 -36 -78
c0 -9.33301 2.33301 -23.333 7 -42s11 -41 19 -67l201 -645l305 936h101l317 -936l166 531c13.333 45.333 23.833 86 31.5 122s11.5 63.667 11.5 83c0 39.333 -13.167 68.333 -39.5 87s-69.166 29.334 -128.499 32.001v81c11.333 -0.666992 27.666 -1.33398 48.999 -2.00098
c86.667 -4 146 -6 178 -6c45.333 0 107.333 2.66699 186 8c17.333 0.666992 30.666 1.33398 39.999 2.00098v-84c-76.667 -8.66699 -132.334 -67.334 -167.001 -176.001c-2.66699 -8 -4.33398 -14 -5.00098 -18l-373 -1131h-105l-313 924l-303 -924h-107l-395 1178
c-10.667 32.667 -22.834 59 -36.501 79s-29.5 34.667 -47.5 44c-12 6 -25.5 11.167 -40.5 15.5s-36.833 8.5 -65.5 12.5v80z" />
    <glyph glyph-name="X" unicode="X" horiz-adv-x="1571" 
d="M68 -6l-0.000976562 82c52 6 102.333 25.333 151 58s99.334 81 152.001 145l282 339l-340 463c-53.333 73.333 -100.833 126.833 -142.5 160.5s-82.834 51.834 -123.501 54.501v80c50 -3.33301 103 -5.83301 159 -7.5s119 -2.5 189 -2.5
c49.333 0 105.166 0.666992 167.499 2s128.833 3.33301 199.5 6v-77c-51.333 -1.33301 -88.833 -7.33301 -112.5 -18s-35.5 -26.667 -35.5 -48c0 -14 2.66699 -27.833 8 -41.5s13 -27.167 23 -40.5l209 -287l174 213c23.333 28 40.833 53.667 52.5 77s17.5 43.333 17.5 60
c0 28 -12 48.5 -36 61.5s-63.333 20.833 -118 23.5v79c38 -3.33301 78 -5.83301 120 -7.5s89.333 -2.5 142 -2.5c27.333 0 64 0.666992 110 2s96.667 3.33301 152 6v-78c-87.333 -1.33301 -195.666 -82 -324.999 -242l-21 -26l-207 -252l435 -583
c30.667 -41.333 60.5 -70.333 89.5 -87s63.167 -25.334 102.5 -26.001v-86c-72.667 2 -137.5 3.5 -194.5 4.5s-105.5 1.5 -145.5 1.5c-60 0 -122.667 -0.5 -188 -1.5s-133 -2.5 -203 -4.5v86h23c54.667 0 93.167 4.83301 115.5 14.5s33.5 25.834 33.5 48.501
c0 12.667 -3.16699 26 -9.5 40s-18.833 33.667 -37.5 59l-219 293l-215 -265c-16.667 -20 -29.667 -40.333 -39 -61s-14 -38.334 -14 -53.001c0 -24 12.833 -42.5 38.5 -55.5s63.834 -20.833 114.501 -23.5v-83c-43.333 2 -92.833 3.5 -148.5 4.5s-117.5 1.5 -185.5 1.5
c-54 0 -95 -0.5 -123 -1.5s-53.667 -2.5 -77 -4.5z" />
    <glyph glyph-name="Y" unicode="Y" horiz-adv-x="1466" 
d="M369 -6l-0.00292969 84.001c80 1.33301 133.333 14 160 38s40 71.333 40 142v277l-325 589c-15.333 28.667 -30.5 54 -45.5 76s-27.833 38.333 -38.5 49c-12.667 12 -28.667 21.833 -48 29.5s-43 13.5 -71 17.5v78c60.667 -2 117.834 -3.5 171.501 -4.5
s105.167 -1.5 154.5 -1.5c57.333 0 114.833 0.5 172.5 1.5s115.167 2.5 172.5 4.5l1 -79c-54 -1.33301 -93.167 -8 -117.5 -20s-36.5 -30.667 -36.5 -56c0 -14.667 5.5 -35.334 16.5 -62.001s31.5 -68.334 61.5 -125.001l201 -366l202 333c28 46 48.333 84.667 61 116
s19 58.333 19 81c0 34 -10.667 58 -32 72s-60.333 22.333 -117 25v81c25.333 -2 52.833 -3.5 82.5 -4.5s74.5 -1.5 134.5 -1.5c31.333 0 87.333 1 168 3c14.667 0.666992 25.667 1 33 1c10 0 17.333 0.166992 22 0.5s9.33398 0.833008 14.001 1.5v-82
c-35.333 -5.33301 -65.166 -16.666 -89.499 -33.999s-46.833 -43.333 -67.5 -78l-377 -621v-293c0 -73.333 14.167 -123 42.5 -149s82.5 -39 162.5 -39l-1 -84c-52 2 -107.667 3.5 -167 4.5s-122.333 1.5 -189 1.5c-112 0 -192.5 -0.5 -241.5 -1.5s-91.833 -2.5 -128.5 -4.5
z" />
    <glyph glyph-name="Z" unicode="Z" horiz-adv-x="1237" 
d="M37 88l751 1178h-204c-138.667 0 -235.667 -19.667 -291 -59s-91 -110 -107 -212h-77v373h1052v-88l-751 -1171h270c121.333 0 213.333 24.333 276 73s103 127.334 121 236.001h80l-20 -418h-1100v88z" />
    <glyph glyph-name="bracketleft" unicode="[" horiz-adv-x="668" 
d="M133 -406v1774h467v-82h-258v-1610h258v-82h-467z" />
    <glyph glyph-name="backslash" unicode="\" horiz-adv-x="557" 
d="M4 1403h100l517 -1593h-99z" />
    <glyph glyph-name="bracketright" unicode="]" horiz-adv-x="668" 
d="M535 -406h-467v82h258v1610h-258v82h467v-1774z" />
    <glyph glyph-name="asciicircum" unicode="^" horiz-adv-x="2048" 
d="M905 1462h236l491 -565h-112l-498 373l-498 -373h-112z" />
    <glyph glyph-name="underscore" unicode="_" 
d="M0 -279h1024v-204h-1024v204z" />
    <glyph glyph-name="grave" unicode="`" 
d="M684 1036l-73.999 0.00195312l-301 183c-32.667 20.667 -54.834 38.167 -66.501 52.5s-17.5 30.166 -17.5 47.499c0 21.333 7.5 39.666 22.5 54.999s32.833 23 53.5 23c16 0 33.333 -5.33301 52 -16s37 -26 55 -46z" />
    <glyph glyph-name="a" unicode="a" horiz-adv-x="1016" 
d="M582 276l0.000976562 225.999c-84.667 -26.667 -145.834 -58.667 -183.501 -96s-56.5 -84.666 -56.5 -141.999c0 -38 9 -68.333 27 -91s41.667 -34 71 -34c38.667 0 72 13.167 100 39.5s42 58.833 42 97.5zM584.001 101.999
c-50.667 -45.333 -99.3301 -78.499 -145.997 -99.499s-95 -31.5 -145 -31.5c-73.333 0 -131.333 20.833 -174 62.5s-64 98.167 -64 169.5c0 72 23.5 131 70.5 177s136.833 94 269.5 144l146 54c18 6 31 14.5 39 25.5s12 25.5 12 43.5v70
c0 41.333 -9.83301 72.833 -29.5 94.5s-48.167 32.5 -85.5 32.5c-28 0 -53 -7.16699 -75 -21.5s-39.333 -34.5 -52 -60.5c-3.33301 -7.33301 -7.66602 -17.666 -12.999 -30.999c-33.333 -79.333 -77.333 -119 -132 -119c-33.333 0 -60.833 10.833 -82.5 32.5
s-32.5 49.167 -32.5 82.5c0 60 34.333 107.833 103 143.5s162 53.5 280 53.5c129.333 0 226.5 -22.333 291.5 -67s97.5 -111.334 97.5 -200.001v-483c0 -20.667 2.83301 -35.334 8.5 -44.001s15.167 -13 28.5 -13c7.33301 0 16.666 2.5 27.999 7.5s24.666 12.5 39.999 22.5
l43 -55c-24.667 -35.333 -59.334 -64.333 -104.001 -87s-89.334 -34 -134.001 -34c-51.333 0 -92 10.5 -122 31.5s-52 54.167 -66 99.5z" />
    <glyph glyph-name="b" unicode="b" horiz-adv-x="1139" 
d="M403 258c0 -56.667 12.833 -99.833 38.5 -129.5s62.834 -44.5 111.501 -44.5c75.333 0 131.333 30.5 168 91.5s55 154.167 55 279.5c0 110 -17.833 195.167 -53.5 255.5s-86.167 90.5 -151.5 90.5c-60.667 0 -103.834 -19.833 -129.501 -59.5s-38.5 -111.5 -38.5 -215.5
v-268zM412 834.001c34.667 30 72.666 52.499 113.999 67.499s87.333 22.5 138 22.5c118 0 215.667 -43 293 -129s116 -196 116 -330c0 -148.667 -41.833 -268.167 -125.5 -358.5s-194.167 -135.5 -331.5 -135.5c-58.667 0 -110.5 8.5 -155.5 25.5
s-83.167 42.833 -114.5 77.5l-215 -103v1260c0 30 -8 50.833 -24 62.5s-48 18.834 -96 21.501l-1 76c102 8.66699 183.333 18 244 28s113.334 22.333 158.001 37v-622z" />
    <glyph glyph-name="c" unicode="c" horiz-adv-x="1012" 
d="M868 236l66.0029 -63.998c-46.667 -66 -104.5 -116 -173.5 -150s-147.833 -51 -236.5 -51c-135.333 0 -244.833 42.5 -328.5 127.5s-125.5 196.167 -125.5 333.5c0 145.333 47.667 263.666 143 354.999s219 137 371 137c105.333 0 189 -18.667 251 -56s93 -87 93 -149
c0 -33.333 -10.167 -59.833 -30.5 -79.5s-47.833 -29.5 -82.5 -29.5c-26 0 -49.333 7.83301 -70 23.5s-37.667 38.167 -51 67.5l-12 28c-30.667 72.667 -72.334 109 -125.001 109c-56.667 0 -100.834 -32.333 -132.501 -97s-47.5 -155.334 -47.5 -272.001
c0 -122.667 20.667 -215.167 62 -277.5s102.666 -93.5 183.999 -93.5c46 0 89.5 11.5 130.5 34.5s79.167 57.5 114.5 103.5z" />
    <glyph glyph-name="d" unicode="d" horiz-adv-x="1249" 
d="M786 584c0 66.667 -16.835 118.167 -50.502 154.5s-81.5 54.5 -143.5 54.5c-69.333 0 -122.166 -29.5 -158.499 -88.5s-54.5 -144.167 -54.5 -255.5c0 -108.667 16.333 -190.5 49 -245.5s81 -82.5 145 -82.5c68.667 0 121.334 21 158.001 63s55 102.333 55 181v219z
M818.998 -27l-21.998 165.999c-36 -56 -79.167 -97.667 -129.5 -125s-109.833 -41 -178.5 -41c-128.667 0 -231 42.833 -307 128.5s-114 201.5 -114 347.5c0 136.667 41.333 250.334 124 341.001s186 136 310 136c59.333 0 113.833 -10.333 163.5 -31
s92.167 -50.667 127.5 -90v414c0 41.333 -9.5 68.833 -28.5 82.5s-62.167 22.167 -129.5 25.5v73c90 4 173 10.833 249 20.5s139 21.5 189 35.5v-1245c0 -30 10.167 -51.5 30.5 -64.5s55.833 -20.167 106.5 -21.5v-72c-64.667 -6.66699 -129.334 -16.667 -194.001 -30
s-130.334 -30 -197.001 -50z" />
    <glyph glyph-name="e" unicode="e" horiz-adv-x="1028" 
d="M377 586h336.001v24c0 74.667 -13.333 131.667 -40 171s-65.334 59 -116.001 59c-53.333 0 -94.833 -20.833 -124.5 -62.5s-48.167 -105.5 -55.5 -191.5zM893.001 236l70.0029 -62c-47.333 -68 -104.833 -118.833 -172.5 -152.5s-146.834 -50.5 -237.501 -50.5
c-144 0 -261.667 43.833 -353 131.5s-137 200.167 -137 337.5c0 143.333 47.167 260.166 141.5 350.499s216.5 135.5 366.5 135.5c129.333 0 229.666 -36.833 300.999 -110.5s107 -176.834 107 -309.501v-17h-602c0 -4.66699 -0.333008 -11.667 -1 -21
s-1 -15.666 -1 -18.999c0 -113.333 23.167 -200.166 69.5 -260.499s113.166 -90.5 200.499 -90.5c27.333 0 53.5 3.66699 78.5 11s48.833 18 71.5 32c12.667 8.66699 27.167 21 43.5 37s34.5 35.333 54.5 58z" />
    <glyph glyph-name="f" unicode="f" horiz-adv-x="707" 
d="M35 -6l-0.00292969 69.002c60.667 2.66699 101.667 14.167 123 34.5s32 58.166 32 113.499v596h-149v94h149v66c0 95.333 4.5 166.166 13.5 212.499s23.833 85.833 44.5 118.5c32 52 77 91.333 135 118s127.667 40 209 40c93.333 0 164.833 -14 214.5 -42
s74.5 -68.667 74.5 -122c0 -34 -10 -61.5 -30 -82.5s-45.667 -31.5 -77 -31.5c-30 0 -54.167 6.83301 -72.5 20.5s-35.833 38.834 -52.5 75.501c-1.33301 3.33301 -3.66602 8.66602 -6.99902 15.999c-22.667 52 -49 78 -79 78c-31.333 0 -54.5 -16.5 -69.5 -49.5
s-22.5 -83.5 -22.5 -151.5v-266h252v-94h-248v-596c0 -55.333 13.833 -93.5 41.5 -114.5s80.834 -32.167 159.501 -33.5l-1 -69c-44 2 -90.5 3.5 -139.5 4.5s-115.5 1.5 -199.5 1.5c-38.667 0 -83.167 -0.5 -133.5 -1.5s-106.166 -2.5 -167.499 -4.5z" />
    <glyph glyph-name="g" unicode="g" horiz-adv-x="1122" 
d="M385 602c0 -90.667 9.16699 -154 27.5 -190s49.5 -54 93.5 -54c47.333 0 80.333 15.833 99 47.5s28 95.834 28 192.501c0 93.333 -9.33301 158.666 -28 195.999s-49.667 56 -93 56c-44 0 -76.167 -19.667 -96.5 -59s-30.5 -102.333 -30.5 -189zM307 309
c-63.333 22.667 -112.161 58.998 -146.494 108.998s-51.5 109.333 -51.5 178c0 96.667 37 175.5 111 236.5s171.333 91.5 292 91.5c51.333 0 99.166 -5.83301 143.499 -17.5s85.166 -29.167 122.499 -52.5c36.667 31.333 71 54.166 103 68.499s64 21.5 96 21.5
c43.333 0 76 -10.5 98 -31.5s33 -52.167 33 -93.5c0 -22 -8.33301 -40.5 -25 -55.5s-38.334 -22.5 -65.001 -22.5c-18.667 0 -41.5 12.667 -68.5 38s-49.167 38 -66.5 38c-6 0 -12.5 -1.5 -19.5 -4.5s-16.167 -8.16699 -27.5 -15.5c24 -28 42.167 -58.667 54.5 -92
s18.5 -69.666 18.5 -108.999c0 -103.333 -33 -180.166 -99 -230.499s-175 -80.833 -327 -91.5c-60 -4.66699 -101.833 -13.667 -125.5 -27s-35.5 -33.666 -35.5 -60.999c0 -46.667 54.667 -70.667 164 -72c23.333 -0.666992 41 -1 53 -1
c178 -4.66699 302.667 -31.334 374 -80.001s107 -128.667 107 -240c0 -115.333 -44 -203.833 -132 -265.5s-215.333 -92.5 -382 -92.5c-134.667 0 -240.334 21.5 -317.001 64.5s-115 101.833 -115 176.5c0 42.667 12.833 78.667 38.5 108s56.5 44 92.5 44
c24.667 0 46.5 -5.66699 65.5 -17s32.5 -27 40.5 -47c-18.667 -4.66699 -33.834 -14.667 -45.501 -30s-17.5 -32.333 -17.5 -51c0 -50 24 -89.167 72 -117.5s114.667 -42.5 200 -42.5c90.667 0 164.5 18.5 221.5 55.5s85.5 84.5 85.5 142.5c0 46.667 -18 81.667 -54 105
s-90.333 35 -163 35c-108.667 0 -187.334 2.33301 -236.001 7s-88.667 12.334 -120 23.001c-42.667 15.333 -76.167 40.333 -100.5 75s-36.5 74.667 -36.5 120c0 54 16.5 100.333 49.5 139s79.833 66.667 140.5 84z" />
    <glyph glyph-name="h" unicode="h" horiz-adv-x="1239" 
d="M51 -4l-0.00195312 69.998c47.333 0 81.333 9.33301 102 28s31 49.334 31 92.001v1004c0 50.667 -7.66699 83.5 -23 98.5s-47.666 23.167 -96.999 24.5l-1 71c80 8 154 18 222 30s129.333 26 184 42v-692c44.667 52.667 94 92.5 148 119.5s112 40.5 174 40.5
c94 0 164.5 -28.667 211.5 -86s70.5 -143.333 70.5 -258v-430c0 -31.333 6.66699 -52.166 20 -62.499s45 -17.5 95 -21.5v-70c-28.667 1.33301 -57.667 2.33301 -87 3s-66 1 -110 1c-39.333 0 -85.666 -0.5 -138.999 -1.5s-114.666 -2.5 -183.999 -4.5v71
c47.333 4 78.166 12.333 92.499 25s21.5 46 21.5 100v390c0 76 -10 127.667 -30 155s-54.333 41 -103 41c-54.667 0 -98.334 -22 -131.001 -66s-49 -104 -49 -180v-319c0 -60 7.33301 -99 22 -117s43.334 -27.333 86.001 -28v-72c-38 2 -91 3.5 -159 4.5
s-150.667 1.5 -248 1.5c-17.333 0 -50 -1 -98 -3c-9.33301 -0.666992 -16.333 -1 -21 -1z" />
    <glyph glyph-name="i" unicode="i" horiz-adv-x="670" 
d="M170 1294c0 43.333 14.999 80.166 44.999 110.499s67 45.5 111 45.5c43.333 0 80 -15.167 110 -45.5s45 -67.166 45 -110.499c0 -42.667 -15.167 -79.167 -45.5 -109.5s-66.833 -45.5 -109.5 -45.5c-43.333 0 -80.166 15.167 -110.499 45.5s-45.5 66.833 -45.5 109.5z
M63.999 -6l0.000976562 78c53.333 2.66699 88.166 10.667 104.499 24s24.5 41.333 24.5 84v484c0 48 -8.16699 79.833 -24.5 95.5s-51.166 24.5 -104.499 26.5l-1 72c87.333 9.33301 163.666 20 228.999 32s119 25.333 161 40h30v-750c0 -42.667 8 -70.667 24 -84
s51 -21.333 105 -24v-78c-66.667 2 -121 3.5 -163 4.5s-73 1.5 -93 1.5c-52 0 -102.5 -0.5 -151.5 -1.5s-95.833 -2.5 -140.5 -4.5z" />
    <glyph glyph-name="j" unicode="j" horiz-adv-x="616" 
d="M131 1294c0 43.333 15.332 80.166 45.999 110.499s68 45.5 112 45.5c43.333 0 80 -15.167 110 -45.5s45 -67.166 45 -110.499c0 -42.667 -15.333 -79.167 -46 -109.5s-67.667 -45.5 -111 -45.5s-80.166 15.167 -110.499 45.5s-45.5 66.833 -45.5 109.5zM177.999 -315v919
c0 70 -10.167 115.167 -30.5 135.5s-61.833 31.833 -124.5 34.5v70c84.667 8 159.667 18.5 225 31.5s125.333 29.167 180 48.5h33v-1065c0 -135.333 -37.167 -239.833 -111.5 -313.5s-179.833 -110.5 -316.5 -110.5c-80.667 0 -145.667 15.167 -195 45.5s-74 70.5 -74 120.5
c0 31.333 10.5 57.5 31.5 78.5s46.833 31.5 77.5 31.5c32.667 0 58.834 -7.5 78.501 -22.5s37.834 -41.5 54.501 -79.5c1.33301 -2.66699 2.66602 -5.66699 3.99902 -9c21.333 -48.667 46.666 -73 75.999 -73c28.667 0 51.167 13.833 67.5 41.5s24.5 66.5 24.5 116.5z" />
    <glyph glyph-name="k" unicode="k" horiz-adv-x="1118" 
d="M50 -6l-1 72.999c52 5.33301 86.167 15 102.5 29s24.5 42 24.5 84v1000c0 45.333 -8.33301 76.333 -25 93s-47.334 25 -92.001 25h-10v76c70 3.33301 139.333 11.833 208 25.5s135.334 32.5 200.001 56.5v-1001l184 184l17 17c58 58 87 98.667 87 122
c0 19.333 -9.83301 33.833 -29.5 43.5s-49.834 15.167 -90.501 16.5v67c42 -2 83.833 -3.5 125.5 -4.5s82.834 -1.5 123.501 -1.5c34 0 68.167 0.5 102.5 1.5s67.833 2.5 100.5 4.5v-67c-46.667 -7.33301 -88 -19.833 -124 -37.5s-69.667 -42.167 -101 -73.5l-152 -156
l351 -460c8 -11.333 18.833 -20.666 32.5 -27.999s27.167 -11 40.5 -11h4v-78c-40 2 -76 3.5 -108 4.5s-60 1.5 -84 1.5c-36 0 -62.333 -0.5 -79 -1.5s-31.334 -2.5 -44.001 -4.5l-287 403l-69 -65v-152c0 -40 7.83301 -67.167 23.5 -81.5s49.167 -24.5 100.5 -30.5v-74
c-20.667 2 -44.167 3.5 -70.5 4.5s-55.833 1.5 -88.5 1.5c-99.333 0 -180.166 -0.5 -242.499 -1.5s-105.5 -2.5 -129.5 -4.5z" />
    <glyph glyph-name="l" unicode="l" horiz-adv-x="674" 
d="M58 -6l-0.998047 76c58 3.33301 95.5 11.5 112.5 24.5s25.5 41.5 25.5 85.5v1047c0 24.667 -9.16699 42.5 -27.5 53.5s-51.5 18.5 -99.5 22.5v73c66.667 4 134.167 12.667 202.5 26s137.166 31.333 206.499 54v-1276c0 -39.333 9.83301 -67 29.5 -83s55.5 -25 107.5 -27
v-76c-22 2 -46.5 3.5 -73.5 4.5s-68.5 1.5 -124.5 1.5h-109h-90c-46 0 -79.833 -0.5 -101.5 -1.5s-40.834 -2.5 -57.501 -4.5z" />
    <glyph glyph-name="m" unicode="m" horiz-adv-x="1796" 
d="M56 -6l-1.00488 78.002c51.333 6 84.333 16.333 99 31s22 46.667 22 96v448c0 58 -8.16699 95.5 -24.5 112.5s-47.833 26.167 -94.5 27.5v71c57.333 5.33301 115.166 13.833 173.499 25.5s117.5 26.5 177.5 44.5h26l12 -185c40.667 61.333 88.167 107.5 142.5 138.5
s114.833 46.5 181.5 46.5c66 0 121 -14.833 165 -44.5s76.333 -73.5 97 -131.5c42.667 58.667 90.5 102.667 143.5 132s111.833 44 176.5 44c95.333 0 164.5 -25.167 207.5 -75.5s64.5 -132.5 64.5 -246.5v-399c0 -60.667 7.5 -98 22.5 -112s47.833 -22 98.5 -24l-1 -77
c-40 2 -79.667 3.5 -119 4.5s-78.666 1.5 -117.999 1.5c-51.333 0 -100.166 -0.5 -146.499 -1.5s-89.5 -2.5 -129.5 -4.5v75c46 1.33301 77 11.166 93 29.499s24 54.5 24 108.5v414c0 54.667 -9.16699 94.834 -27.5 120.501s-46.833 38.5 -85.5 38.5
c-58 0 -105 -24.5 -141 -73.5s-54 -113.833 -54 -194.5v-299c0 -59.333 7.33301 -97.5 22 -114.5s43 -26.167 85 -27.5l-1 -77c-42 2 -83 3.5 -123 4.5s-79.333 1.5 -118 1.5c-47.333 0 -92.666 -0.5 -135.999 -1.5s-83.666 -2.5 -120.999 -4.5l-1 77
c46 1.33301 76.667 10.166 92 26.499s23 50.166 23 101.499v432c0 52.667 -9 90.667 -27 114s-47.333 35 -88 35c-56 0 -102 -24.833 -138 -74.5s-54 -114.167 -54 -193.5v-299c0 -56.667 7.33301 -93.667 22 -111s43.334 -27.333 86.001 -30v-78
c-42.667 2 -85.167 3.5 -127.5 4.5s-85.166 1.5 -128.499 1.5c-47.333 0 -92 -0.5 -134 -1.5s-81 -2.5 -117 -4.5z" />
    <glyph glyph-name="n" unicode="n" horiz-adv-x="1233" 
d="M56 -6l-1.00195 72.9971c54 5.33301 88.667 14.333 104 27s23 42.667 23 90v457c0 54.667 -8.33301 90.834 -25 108.501s-50.667 26.5 -102 26.5v76c57.333 4 114.833 12 172.5 24s116.167 28 175.5 48h35l13 -181c46.667 60.667 98 106 154 136s117 45 183 45
c94 0 165 -27.5 213 -82.5s72 -136.167 72 -243.5v-414c0 -49.333 7.33301 -80.166 22 -92.499s47.667 -20.166 99 -23.499v-74c-47.333 2 -93.166 3.5 -137.499 4.5s-87.166 1.5 -128.499 1.5c-36 0 -75.333 -0.5 -118 -1.5s-88.667 -2.5 -138 -4.5v74
c46.667 0 77.667 7.5 93 22.5s23 46.167 23 93.5v414c0 58.667 -10.167 102.667 -30.5 132s-50.833 44 -91.5 44c-60 0 -108.167 -23.667 -144.5 -71s-54.5 -110.333 -54.5 -189v-319c0 -50 8.5 -83.5 25.5 -100.5s48.833 -26.167 95.5 -27.5l-1 -73
c-60.667 2 -114.5 3.5 -161.5 4.5s-87.833 1.5 -122.5 1.5c-38.667 0 -78.5 -0.5 -119.5 -1.5s-83.5 -2.5 -127.5 -4.5z" />
    <glyph glyph-name="o" unicode="o" horiz-adv-x="1120" 
d="M360 440c0 -141.333 15.5 -240.5 46.5 -297.5s83.167 -85.5 156.5 -85.5c70.667 0 121.5 31.333 152.5 94s46.5 166.667 46.5 312c0 128 -16 222.5 -48 283.5s-81.667 91.5 -149 91.5c-70.667 0 -122.5 -31.667 -155.5 -95s-49.5 -164.333 -49.5 -303zM51 444
c0 140.667 48.334 255.833 145.001 345.5s221.667 134.5 375 134.5c146 0 265.5 -43.5 358.5 -130.5s139.5 -197.833 139.5 -332.5c0 -146.667 -47.333 -265 -142 -355s-219.334 -135 -374.001 -135c-146 0 -266.167 44.5 -360.5 133.5s-141.5 202.167 -141.5 339.5z" />
    <glyph glyph-name="p" unicode="p" horiz-adv-x="1249" 
d="M463 319c0 -70 16.0029 -123.667 48.0029 -161s78 -56 138 -56c77.333 0 134.166 28.333 170.499 85s54.5 144.667 54.5 264c0 105.333 -17.833 185.833 -53.5 241.5s-87.834 83.5 -156.501 83.5c-60.667 0 -109.334 -22.5 -146.001 -67.5s-55 -105.167 -55 -180.5v-209z
M35.0029 -573l-0.00195312 71.002c63.333 5.33301 104.333 16.833 123 34.5s28 53.5 28 107.5v921c0 95.333 -9.66699 155.666 -29 180.999s-56 38 -110 38v80c68.667 5.33301 132.834 13.166 192.501 23.499s115.834 23.833 168.501 40.5h38v-174
c48 60 97.167 104 147.5 132s105.833 42 166.5 42c121.333 0 221.666 -44.833 300.999 -134.5s119 -204.167 119 -343.5c0 -138 -40.5 -252 -121.5 -342s-183.167 -135 -306.5 -135c-52.667 0 -102.167 9.5 -148.5 28.5s-93.166 49.167 -140.499 90.5v-432
c0 -63.333 9.83301 -104.5 29.5 -123.5s62.5 -30.5 128.5 -34.5l-1 -71c-65.333 3.33301 -122 5.83301 -170 7.5s-90.667 2.5 -128 2.5c-28 0 -117.333 -3.33301 -268 -10h-19z" />
    <glyph glyph-name="q" unicode="q" horiz-adv-x="1139" 
d="M735 352v247.998c0 84.667 -12 144.334 -36 179.001s-64.333 52 -121 52c-70.667 0 -123.834 -32.667 -159.501 -98s-53.5 -161.666 -53.5 -288.999c0 -110.667 15.667 -195 47 -253s77 -87 137 -87c66.667 0 114.334 18.833 143.001 56.5s43 101.5 43 191.5z
M576 -573.002l-1 75c69.333 5.33301 113.333 15 132 29s28 44.667 28 92v473c-42 -44 -84.167 -76.167 -126.5 -96.5s-88.833 -30.5 -139.5 -30.5c-118.667 0 -215.5 42.667 -290.5 128s-112.5 195.666 -112.5 330.999c0 142.667 44.167 261.334 132.5 356.001
s198.833 142 331.5 142c57.333 0 111 -8.5 161 -25.5s96 -42.167 138 -75.5l148 99h39v-1301c0 -47.333 8.16699 -79 24.5 -95s47.5 -24.667 93.5 -26l1 -75c-94.667 4 -163.5 6.66699 -206.5 8s-76.833 2 -101.5 2c-34 0 -71.333 -0.833008 -112 -2.5
s-87 -4.16699 -139 -7.5z" />
    <glyph glyph-name="r" unicode="r" horiz-adv-x="899" 
d="M61 -4l-0.00195312 75.999c52.667 5.33301 87.334 15 104.001 29s25 39.667 25 77v418c0 73.333 -9 122.5 -27 147.5s-51 37.833 -99 38.5l-1 72c77.333 8.66699 144.5 18.834 201.5 30.501s105.5 25.5 145.5 41.5h34l17 -178c36.667 54 77.167 95.333 121.5 124
s89.833 43 136.5 43c53.333 0 94.666 -12.667 123.999 -38s44 -61 44 -107c0 -38 -11.5 -68.333 -34.5 -91s-53.833 -34 -92.5 -34c-35.333 0 -68 17.833 -98 53.5s-51.333 53.5 -64 53.5c-28 0 -54.833 -20.5 -80.5 -61.5s-38.5 -85.5 -38.5 -133.5v-385
c0 -38.667 9.5 -65 28.5 -79s57.5 -21 115.5 -21l-1 -76c-73.333 1.33301 -131.166 2.33301 -173.499 3s-81.166 1 -116.499 1c-58 0 -107.167 -0.333008 -147.5 -1s-81.5 -1.66699 -123.5 -3z" />
    <glyph glyph-name="s" unicode="s" horiz-adv-x="897" 
d="M98 -16c1.33301 20.667 2.33398 42.1689 3.00098 64.502s1 51.166 1 86.499c0 36.667 -0.333008 66.167 -1 88.5s-1.66699 44.166 -3 65.499h74c20.667 -68.667 57.5 -124.167 110.5 -166.5s111.167 -63.5 174.5 -63.5c43.333 0 79.666 11.333 108.999 34
s44 50.334 44 83.001c0 30.667 -9.83301 55.667 -29.5 75s-68.5 43.666 -146.5 72.999c-135.333 49.333 -222.666 95 -261.999 137s-59 98.667 -59 170c0 89.333 27.5 160.833 82.5 214.5s129.167 80.5 222.5 80.5c47.333 0 92.166 -7 134.499 -21s77.833 -33 106.5 -57
l39 67h78c-0.666992 -16.667 -1.16699 -34 -1.5 -52s-0.5 -45 -0.5 -81c0 -34.667 0.166992 -61.667 0.5 -81s0.833008 -38 1.5 -56h-78c-24 60 -59 107.5 -105 142.5s-97 52.5 -153 52.5c-40 0 -72.5 -9.83301 -97.5 -29.5s-37.5 -44.834 -37.5 -75.501
c0 -50.667 54.667 -93.667 164 -129l61 -20c102 -34.667 176.333 -77.167 223 -127.5s70 -113.166 70 -188.499c0 -89.333 -31.333 -161.5 -94 -216.5s-146 -82.5 -250 -82.5c-58.667 0 -111.667 7.83301 -159 23.5s-85 37.167 -113 64.5l-31 -75h-78z" />
    <glyph glyph-name="t" unicode="t" horiz-adv-x="672" 
d="M152 252l-0.000976562 555h-103v82c70.667 12 130.834 42.333 180.501 91s91.167 118 124.5 208h80v-287h211v-94h-211v-590c0 -40.667 5 -68.167 15 -82.5s27.667 -21.5 53 -21.5c21.333 0 41 6.16699 59 18.5s35.667 31.833 53 58.5l70 -57
c-34.667 -54 -76.667 -94.5 -126 -121.5s-106.333 -40.5 -171 -40.5c-85.333 0 -145.833 20.833 -181.5 62.5s-53.5 114.5 -53.5 218.5z" />
    <glyph glyph-name="u" unicode="u" horiz-adv-x="1237" 
d="M172 262l-0.00292969 403.999c0 70.667 -8.16699 115.334 -24.5 134.001s-48.5 29 -96.5 31v70h49c21.333 0 51 -0.333008 89 -1s65 -1 81 -1c33.333 2.66699 79 5 137 7c21.333 0.666992 36.666 1 45.999 1v-622c0 -54.667 9.5 -95 28.5 -121s48.167 -39 87.5 -39
c68.667 0 119.334 26.5 152.001 79.5s49 135.167 49 246.5v227c0 63.333 -8.33301 104.5 -25 123.5s-50 29.167 -100 30.5v69c42.667 1.33301 109.334 2.33301 200.001 3s160 1.66699 208 3v-696c0 -32.667 6.83301 -54.834 20.5 -66.501s40.167 -17.5 79.5 -17.5h16h9v-76
c-59.333 -5.33301 -118.166 -13.666 -176.499 -24.999s-117.166 -25.333 -176.499 -42h-30l-17 170c-41.333 -58 -90.5 -102.667 -147.5 -134s-117.5 -47 -181.5 -47c-94.667 0 -164.5 23.667 -209.5 71s-67.5 120 -67.5 218z" />
    <glyph glyph-name="v" unicode="v" horiz-adv-x="1020" 
d="M459 -14l-318.001 711.997c-21.333 48.667 -42.333 82.334 -63 101.001s-46.667 29.334 -78 32.001v72c6.66699 0 16.334 -0.333008 29.001 -1c41.333 -2 69.333 -3 84 -3c73.333 0 144 0.5 212 1.5s135 2.5 201 4.5v-71
c-40.667 -3.33301 -69.167 -9.16602 -85.5 -17.499s-24.5 -21.166 -24.5 -38.499c0 -6.66699 1 -14.834 3 -24.501s5 -19.167 9 -28.5l174 -408l74 162c28 62.667 50.667 121 68 175s26 92 26 114c0 20.667 -6 35.167 -18 43.5s-42 15.833 -90 22.5v71
c22 -2 44.667 -3.5 68 -4.5s46.333 -1.5 69 -1.5c21.333 0 54 0.833008 98 2.5l92 3.5h31v-71c-32 -4 -59.833 -16.333 -83.5 -37s-44.5 -50.667 -62.5 -90l-327 -721h-88z" />
    <glyph glyph-name="w" unicode="w" horiz-adv-x="1462" 
d="M412 -12l-268.999 694c-22.667 59.333 -44 99.166 -64 119.499s-46.333 31.833 -79 34.5v69l153 -3c34.667 -0.666992 67 -1 97 -1c7.33301 0 42.833 0.5 106.5 1.5s122.834 1.83301 177.501 2.5v-69c-48 -1.33301 -80.667 -7 -98 -17s-26 -27 -26 -51
c0 -11.333 1 -23.5 3 -36.5s5 -24.833 9 -35.5l129 -340l229 549h80l213 -581l117 292c11.333 29.333 20.333 56.833 27 82.5s10 46.167 10 61.5c0 24 -9.16699 42 -27.5 54s-51.5 20.667 -99.5 26v67c36 -2 69 -3.5 99 -4.5s57 -1.5 81 -1.5c23.333 0 56.166 1 98.499 3
s70.166 3 83.499 3v-71c-60 -7.33301 -111.333 -64.666 -154 -171.999l-22 -54l-258 -622h-86l-223 534l-215 -534h-92z" />
    <glyph glyph-name="x" unicode="x" horiz-adv-x="1227" 
d="M70 -6l-0.000976562 76c40.667 2.66699 80 13.834 118 33.501s71.667 45.834 101 78.501l186 213l-295 361c-21.333 28 -40.333 46.167 -57 54.5s-37 13.166 -61 14.499l-1 78c8.66699 0 19.5 -0.333008 32.5 -1s21.5 -1 25.5 -1c39.333 0 90.333 -0.333008 153 -1
s105 -1 127 -1c56 0 102 0.5 138 1.5s61.667 2.5 77 4.5v-73c-30.667 -1.33301 -54.334 -5.33301 -71.001 -12s-25 -15.667 -25 -27c0 -4.66699 2 -11.334 6 -20.001s9 -16.667 15 -24l135 -157l94 100c18.667 18.667 32.167 35.5 40.5 50.5s12.5 29.5 12.5 43.5
c0 14.667 -7.33301 25.334 -22 32.001s-42 11.334 -82 14.001v71c12.667 -0.666992 25.5 -1.16699 38.5 -1.5s29.5 -0.5 49.5 -0.5h24c45.333 -1.33301 87 -2 125 -2c27.333 0 54.166 0.333008 80.499 1s51.5 1.66699 75.5 3v-69
c-37.333 -3.33301 -71.5 -13.833 -102.5 -31.5s-70.5 -53.834 -118.5 -108.501l-160 -174l293 -368c16.667 -22 36.834 -39.667 60.501 -53s51.834 -23 84.501 -29v-76c-47.333 2 -94.666 3.5 -141.999 4.5s-94.666 1.5 -141.999 1.5c-48 0 -96 -0.5 -144 -1.5
s-96.333 -2.5 -145 -4.5v76h9c59.333 3.33301 89 15.333 89 36c0 10.667 -1.5 19.667 -4.5 27s-8.83301 16.333 -17.5 27l-140 162l-90 -101c-18 -20 -32.333 -39.333 -43 -58s-16 -33.334 -16 -44.001c0 -16.667 6.66699 -28.834 20 -36.501s40 -14.167 80 -19.5v-69
c-44.667 0.666992 -89.667 1.83398 -135 3.50098s-69.333 2.5 -72 2.5c-10.667 0 -32.834 -0.5 -66.501 -1.5s-79.5 -2.5 -137.5 -4.5z" />
    <glyph glyph-name="y" unicode="y" horiz-adv-x="1116" 
d="M502 -8l-307 707.999c-2 4 -4.33301 9 -7 15c-33.333 78 -77 117.667 -131 119l1 73c36.667 -2 79.167 -3.5 127.5 -4.5s102.5 -1.5 162.5 -1.5c40 0 79.833 0.5 119.5 1.5s78.167 2.5 115.5 4.5l1 -73c-43.333 0 -72.333 -4 -87 -12s-22 -22 -22 -42
c0 -8.66699 1.5 -19.167 4.5 -31.5s7.16699 -24.833 12.5 -37.5l157 -404l121 268c16 36 28.833 70.833 38.5 104.5s14.5 59.167 14.5 76.5c0 28.667 -8.16699 48.834 -24.5 60.501s-45.5 17.5 -87.5 17.5v73c34.667 -0.666992 72.334 -1.83398 113.001 -3.50098
s64.334 -2.5 71.001 -2.5c7.33301 0 25.333 0.5 54 1.5s68.667 2.5 120 4.5v-73c-58 -2.66699 -119.333 -78.667 -184 -228l-47 -108l-332 -725c-62.667 -136.667 -114.5 -228.167 -155.5 -274.5s-85.5 -69.5 -133.5 -69.5c-36.667 0 -66.334 10.333 -89.001 31
s-34 48.334 -34 83.001c0 44 19.167 79.667 57.5 107s88.166 41 149.499 41c18 0 36.667 10 56 30s38.333 48.667 57 86z" />
    <glyph glyph-name="z" unicode="z" horiz-adv-x="895" 
d="M41 0l0.000976562 68.001l477 747h-123c-68.667 0 -121.834 -16.333 -159.501 -49s-63.5 -85.334 -77.5 -158.001h-86l22 293h752v-76l-469 -735h133c85.333 0 146.333 16 183 48s63 90.333 79 175h82l-20 -313h-793z" />
    <glyph glyph-name="braceleft" unicode="{" 
d="M852 1516v-61c-80.667 -2 -135.667 -20.333 -165 -55s-44 -104.667 -44 -210v-133c0 -150 -17.833 -252.333 -53.5 -307s-101.167 -93 -196.5 -115c95.333 -21.333 160.833 -59 196.5 -113s53.5 -156.333 53.5 -307v-135c0 -105.333 14.667 -175.333 44 -210
s84.333 -53 165 -55v-59c-156.667 0 -263.5 24.167 -320.5 72.5s-85.5 139.5 -85.5 273.5v193c0 110 -18.667 185.5 -56 226.5s-108 66.5 -212 76.5v76c104 10 174.667 35.5 212 76.5s56 116.5 56 226.5v192c0 134 28.5 225.333 85.5 274s163.833 73 320.5 73z" />
    <glyph glyph-name="bar" unicode="|" 
d="M410 1565h206v-2048h-206v2048z" />
    <glyph glyph-name="braceright" unicode="}" 
d="M172 1516c157.333 0 264.668 -24.332 322.001 -72.999s86 -140 86 -274v-192c0 -110 18.667 -185.5 56 -226.5s108 -66.5 212 -76.5v-76c-104 -10 -174.667 -35.5 -212 -76.5s-56 -116.5 -56 -226.5v-193c0 -132 -28.333 -222.667 -85 -272s-160.334 -74 -311.001 -74
h-12v59c79.333 1.33301 134 19.666 164 54.999s45 105.333 45 210v135c0 150.667 17.833 253 53.5 307s101.167 91.667 196.5 113c-95.333 22 -160.833 60.333 -196.5 115s-53.5 157 -53.5 307v133c0 104 -15 173.833 -45 209.5s-84.667 54.167 -164 55.5v61z" />
    <glyph glyph-name="asciitilde" unicode="~" horiz-adv-x="1706" 
d="M1530 803l0.00390625 -221c-69.333 -47.333 -134.833 -82.166 -196.5 -104.499s-122.5 -33.5 -182.5 -33.5c-30.667 0 -61.334 2.66699 -92.001 8s-61.334 13 -92.001 23c-16 5.33301 -39.667 13.666 -71 24.999c-146 50 -257 75 -333 75
c-56.667 0 -115.834 -12.5 -177.501 -37.5s-130.834 -64.833 -207.501 -119.5v221c71.333 48 139.333 83.833 204 107.5s125.667 35.5 183 35.5c78 0 175 -19.333 291 -58c2 -0.666992 3.33301 -1 4 -1l55 -19c103.333 -36.667 183.333 -55 240 -55s115 12.333 175 37
s126.667 63.667 200 117z" />
    <glyph glyph-name="nonbreakingspace" unicode="&#xa0;" horiz-adv-x="1128" 
 />
    <glyph glyph-name="exclamdown" unicode="&#xa1;" horiz-adv-x="678" 
d="M510 1233c0 -47.333 -16.667 -87.5 -50 -120.5s-74 -49.5 -122 -49.5s-88.333 16.5 -121 49.5s-49 73.167 -49 120.5c0 46.667 16.5 86.667 49.5 120s73.167 50 120.5 50s87.833 -16.667 121.5 -50s50.5 -73.333 50.5 -120zM377 954
c0.666992 -131.333 21.332 -282.501 61.999 -453.501s61 -278.5 61 -322.5c0 -63.333 -14.667 -113.666 -44 -150.999s-68.666 -56 -117.999 -56s-88.333 18.5 -117 55.5s-43 87.5 -43 151.5c0 46 20 154.167 60 324.5s61 320.833 63 451.5h76z" />
    <glyph glyph-name="cent" unicode="&#xa2;" horiz-adv-x="1128" 
d="M483 246l222 583.001c-10 10.667 -22 18.5 -36 23.5s-31.667 7.5 -53 7.5c-59.333 0 -104.5 -31.5 -135.5 -94.5s-46.5 -155.167 -46.5 -276.5c0 -56 4.33301 -105.333 13 -148s20.667 -74.334 36 -95.001zM289 -259.999l112 292.999
c-92.667 38.667 -161.5 94 -206.5 166s-67.5 163.333 -67.5 274c0 137.333 46.5 251.166 139.5 341.499s210.167 135.5 351.5 135.5c23.333 0 45.666 -0.666992 66.999 -2s42.333 -3.33301 63 -6l94 246h86l-99 -266c56 -21.333 96.667 -45.166 122 -71.499
s38 -57.833 38 -94.5c0 -34 -10.5 -62 -31.5 -84s-47.833 -33 -80.5 -33c-25.333 0 -48.166 6.66699 -68.499 20s-39.166 34 -56.499 62l-209 -545c19.333 -17.333 40.666 -30.166 63.999 -38.499s49.666 -12.5 78.999 -12.5c44.667 0 86.5 11.167 125.5 33.5
s77.833 57.5 116.5 105.5l73 -59c-52.667 -68 -115.167 -120.167 -187.5 -156.5s-150.166 -54.5 -233.499 -54.5c-18.667 0 -36.5 0.833008 -53.5 2.5s-34.167 4.16699 -51.5 7.5l-98 -264h-88z" />
    <glyph glyph-name="sterling" unicode="&#xa3;" horiz-adv-x="1128" 
d="M408 205c-25.333 20 -52.1689 35.5 -80.502 46.5s-55.5 16.5 -81.5 16.5c-36.667 0 -66.667 -10.5 -90 -31.5s-35 -48.5 -35 -82.5c0 -32 10.333 -57.167 31 -75.5s49.334 -27.5 86.001 -27.5c44.667 0 81.334 13 110.001 39s48.667 64.333 60 115zM511.997 129
c-31.333 -52.667 -69.832 -92.8291 -115.499 -120.496s-95.834 -41.5 -150.501 -41.5c-62 0 -111.333 16.833 -148 50.5s-55 78.5 -55 134.5c0 59.333 19.167 107.166 57.5 143.499s88.833 54.5 151.5 54.5c29.333 0 57.5 -3 84.5 -9s53.5 -15.333 79.5 -28
c0 48.667 -5.83301 103 -17.5 163s-28.5 122.667 -50.5 188h-246v100h215c-14 52.667 -24.667 100 -32 142s-11 78 -11 108c0 119.333 37.833 214 113.5 284s178.5 105 308.5 105c102.667 0 186.834 -22 252.501 -66s98.5 -98.333 98.5 -163
c0 -32 -10.167 -58.167 -30.5 -78.5s-45.833 -30.5 -76.5 -30.5c-34 0 -59.833 9.66699 -77.5 29s-32.834 56.666 -45.501 111.999c-10 45.333 -24.667 75.5 -44 90.5s-50.333 22.5 -93 22.5c-50.667 0 -92.334 -17 -125.001 -51s-49 -77.667 -49 -131
c0 -34.667 12.5 -94.834 37.5 -180.501s42.5 -149.834 52.5 -192.501h270v-100h-254c4 -26 7.16699 -53.333 9.5 -82s3.5 -58 3.5 -88c0 -42.667 -4 -84 -12 -124s-19 -76 -33 -108c50.667 -16.667 99.834 -29.334 147.501 -38.001s91.167 -13 130.5 -13
c35.333 0 66.5 4.83301 93.5 14.5s51.5 24.834 73.5 45.501c6.66699 6.66699 15.167 18.167 25.5 34.5s19.166 24.5 26.499 24.5c8 0 13.833 -3.83301 17.5 -11.5s5.5 -19.5 5.5 -35.5c0 -91.333 -25.667 -166.833 -77 -226.5s-116.666 -89.5 -195.999 -89.5
c-48 0 -96.5 12.5 -145.5 37.5s-105.5 66.5 -169.5 124.5z" />
    <glyph glyph-name="currency" unicode="&#xa4;" horiz-adv-x="1241" 
d="M623 1161c-75.333 0 -140.333 -27.333 -195 -82s-82 -119.334 -82 -194.001c0 -76 27 -140.833 81 -194.5s119.333 -80.5 196 -80.5c75.333 0 140.166 26.833 194.499 80.5s81.5 118.5 81.5 194.5c0 74.667 -27.167 139.334 -81.5 194.001s-119.166 82 -194.499 82z
M172 1438l204.999 -203c36 26 74 45.5 114 58.5s83.333 19.5 130 19.5s90.5 -6.5 131.5 -19.5s79.5 -32.5 115.5 -58.5l203 203l105 -107l-203 -205c25.333 -35.333 44.333 -73.166 57 -113.499s19 -82.833 19 -127.5s-6.33301 -87 -19 -127s-31.667 -78.333 -57 -115
l203 -205l-105 -104l-203 203c-36 -26.667 -74.333 -46.334 -115 -59.001s-84 -19 -130 -19c-48 0 -92.167 6.33301 -132.5 19s-78.166 32.334 -113.499 59.001l-205 -203l-104 104l202 205c-25.333 36 -44.166 73.833 -56.499 113.5s-18.5 82.5 -18.5 128.5
c0 44.667 6.16699 87.167 18.5 127.5s31.166 78.166 56.499 113.499l-202 205z" />
    <glyph glyph-name="yen" unicode="&#xa5;" horiz-adv-x="1337" 
d="M328 -6l-0.000976562 84.0029c80 1.33301 133.333 14 160 38s40 71.333 40 142v225h-489v86h471l-86 154h-385v86h338l-174 315c-39.333 72 -72.166 117.5 -98.499 136.5s-61.166 30.167 -104.499 33.5v80c53.333 -2 103.166 -3.5 149.499 -4.5s90.833 -1.5 133.5 -1.5
c57.333 0 115 0.5 173 1.5s115.333 2.5 172 4.5l1 -79c-54 -1.33301 -93.167 -8 -117.5 -20s-36.5 -30.667 -36.5 -56c0 -14.667 5.5 -35.334 16.5 -62.001s31.5 -68.334 61.5 -125.001l201 -366l202 333c28 46 48.333 84.667 61 116s19 58.333 19 81
c0 33.333 -10.5 57.166 -31.5 71.499s-60.167 23.5 -117.5 27.5v79c25.333 -2 52.833 -3.5 82.5 -4.5s74.5 -1.5 134.5 -1.5c43.333 0 83.5 0.5 120.5 1.5s70.5 2.5 100.5 4.5v-80c-36.667 -6 -67.334 -18 -92.001 -36s-47.334 -44 -68.001 -78l-223 -371h336v-86h-389
l-94 -154h483v-86h-487v-217c0 -74 13.833 -123.833 41.5 -149.5s81.167 -38.5 160.5 -38.5v-84c-51.333 2 -105.166 3.5 -161.499 4.5s-115.166 1.5 -176.499 1.5c-102 0 -174.5 -0.5 -217.5 -1.5s-79.5 -2.5 -109.5 -4.5z" />
    <glyph glyph-name="brokenbar" unicode="&#xa6;" 
d="M410 408h206v-758h-206v758zM410 1432h206v-758h-206v758z" />
    <glyph glyph-name="section" unicode="&#xa7;" 
d="M260 666c0 -32.667 10.832 -65.833 32.499 -99.5s55.167 -70.167 100.5 -109.5c73.333 -63.333 125.333 -104.5 156 -123.5s57.334 -28.5 80.001 -28.5c38 0 70 12.333 96 37s39 55.334 39 92.001c0 30 -9.5 60.667 -28.5 92s-52.5 69.666 -100.5 114.999
c-56.667 54 -104 92.833 -142 116.5s-72 35.5 -102 35.5c-36.667 0 -67.667 -12.5 -93 -37.5s-38 -54.833 -38 -89.5zM645.999 247.001c64 -53.333 111.333 -104.168 142 -152.501s46 -96.166 46 -143.499c0 -76.667 -33 -138.5 -99 -185.5s-153.333 -70.5 -262 -70.5
c-91.333 0 -166 20.167 -224 60.5s-87 91.833 -87 154.5c0 41.333 12.333 74.5 37 99.5s57.334 37.5 98.001 37.5c32.667 0 60 -11 82 -33s33 -49.333 33 -82c0 -26.667 -10.667 -51.5 -32 -74.5s-32 -37.5 -32 -43.5c0 -18.667 11.667 -34 35 -46s54 -18 92 -18
c54 0 96.5 12.833 127.5 38.5s46.5 60.834 46.5 105.501c0 56.667 -66 141 -198 253c-1.33301 1.33301 -2 2.33301 -2 3l-181 155c-59.333 51.333 -103.5 100.333 -132.5 147s-43.5 92.667 -43.5 138c0 72 26 131.333 78 178s121.667 72.667 209 78
c-69.333 60 -118.166 112.167 -146.499 156.5s-42.5 89.833 -42.5 136.5c0 80.667 30.5 144.834 91.5 192.501s143.167 71.5 246.5 71.5c88 0 159.833 -20.333 215.5 -61s83.5 -92 83.5 -154c0 -40.667 -11.5 -73 -34.5 -97s-53.833 -36 -92.5 -36
c-34.667 0 -63.667 10.167 -87 30.5s-35 45.5 -35 75.5c0 22 10.5 45.5 31.5 70.5s31.5 41.833 31.5 50.5c0 17.333 -11.333 33 -34 47s-49.667 21 -81 21c-46 0 -83 -12.5 -111 -37.5s-42 -57.833 -42 -98.5c0 -35.333 13.167 -71.5 39.5 -108.5
s82.166 -92.167 167.499 -165.5l178 -149c59.333 -50.667 103.166 -99.5 131.499 -146.5s42.5 -95.167 42.5 -144.5c0 -70.667 -25.833 -128.834 -77.5 -174.501s-121.167 -71.834 -208.5 -78.501z" />
    <glyph glyph-name="dieresis" unicode="&#xa8;" 
d="M203 1198c0 30 11.167 56.333 33.5 79s48.5 34 78.5 34c30.667 0 57.167 -11.167 79.5 -33.5s33.5 -48.833 33.5 -79.5c0 -32.667 -10.5 -59.667 -31.5 -81s-48.167 -32 -81.5 -32c-32.667 0 -59.5 10.667 -80.5 32s-31.5 48.333 -31.5 81zM588 1198
c0 30 11.167 56.333 33.5 79s48.5 34 78.5 34c30.667 0 57.167 -11.167 79.5 -33.5s33.5 -48.833 33.5 -79.5c0 -32.667 -10.5 -59.667 -31.5 -81s-48.167 -32 -81.5 -32c-32 0 -58.667 10.833 -80 32.5s-32 48.5 -32 80.5z" />
    <glyph glyph-name="copyright" unicode="&#xa9;" horiz-adv-x="1683" 
d="M1126 1102l44.9971 0.000976562v-326h-47c-20.667 87.333 -54 154.666 -100 201.999s-100.667 71 -164 71c-78.667 0 -137.167 -30.167 -175.5 -90.5s-57.5 -151.833 -57.5 -274.5c0 -123.333 20.833 -217 62.5 -281s102.5 -96 182.5 -96
c53.333 0 102.833 14.667 148.5 44s87.167 72.666 124.5 129.999l45 -28c-42 -71.333 -92.167 -125 -150.5 -161s-124.166 -54 -197.499 -54c-123.333 0 -226.166 40.833 -308.499 122.5s-123.5 182.834 -123.5 303.501c0 127.333 40.333 232.833 121 316.5
s182.334 125.5 305.001 125.5c52.667 0 103.667 -11 153 -33s76 -33 80 -33c16 0 28.5 5 37.5 15s15.5 25.667 19.5 47zM843.997 1309c-84.667 0 -165.168 -16.002 -241.501 -48.002s-144.166 -78.333 -203.499 -139c-59.333 -60 -104.5 -128 -135.5 -204
s-46.5 -156 -46.5 -240c0 -85.333 15.5 -166 46.5 -242s76.167 -143.667 135.5 -203c60 -59.333 127.333 -104.5 202 -135.5s155 -46.5 241 -46.5c84.667 0 164.667 15.667 240 47s142 76.333 200 135c59.333 60.667 104.833 129.334 136.5 206.001
s47.5 156.334 47.5 239.001c0 84.667 -15.833 166 -47.5 244s-76.5 145.333 -134.5 202c-58 58.667 -125.667 104.167 -203 136.5s-156.333 48.5 -237 48.5zM843.996 1413c94 0 185.833 -18.668 275.5 -56.001s169.167 -90.333 238.5 -159
c68 -68 121.167 -147.833 159.5 -239.5s57.5 -185.167 57.5 -280.5s-18.833 -187.833 -56.5 -277.5s-91.167 -169.834 -160.5 -240.501c-68 -69.333 -146.333 -122.166 -235 -158.499s-182.334 -54.5 -281.001 -54.5s-191.667 18 -279 54s-166.333 89 -237 159
c-70 69.333 -123.333 148.333 -160 237s-55 182.334 -55 281.001s18.167 192.5 54.5 281.5s89.166 167.833 158.499 236.5c68.667 69.333 148.334 122.833 239.001 160.5s184.334 56.5 281.001 56.5z" />
    <glyph glyph-name="ordfeminine" unicode="&#xaa;" horiz-adv-x="762" 
d="M84 594h629v-113h-629v113zM426 1090c-57.333 -18.667 -98.332 -40 -122.999 -64s-37 -54.667 -37 -92c0 -24 5.66699 -43 17 -57s27 -21 47 -21c25.333 0 47.666 8.5 66.999 25.5s29 37.833 29 62.5v146zM655.001 1210l-0.000976562 -337.999
c0.666992 -12 2.16699 -20.333 4.5 -25s6.5 -7 12.5 -7s13.833 2.16699 23.5 6.5s20.167 10.166 31.5 17.499l41 -49c-21.333 -28.667 -49.666 -51.167 -84.999 -67.5s-72.666 -24.5 -111.999 -24.5c-35.333 0 -64.5 7.16699 -87.5 21.5s-39.5 35.833 -49.5 64.5
c-33.333 -28 -68.166 -49.333 -104.499 -64s-73.166 -22 -110.499 -22c-58 0 -103.833 15.167 -137.5 45.5s-50.5 71.833 -50.5 124.5c0 51.333 18.667 94 56 128s106 68.333 206 103l108 39c13.333 5.33301 22.166 11 26.499 17s6.5 14 6.5 24v47
c0 28 -6.16699 48.667 -18.5 62s-31.5 20 -57.5 20c-19.333 0 -37 -4.66699 -53 -14s-27.667 -21.666 -35 -36.999c-2.66699 -5.33301 -6.33398 -13.333 -11.001 -24c-26 -58 -61.667 -87 -107 -87c-27.333 0 -50 8.5 -68 25.5s-27 38.167 -27 63.5
c0 44 26.667 79.167 80 105.5s125.666 39.5 216.999 39.5c99.333 0 174.333 -16.333 225 -49s76 -81.334 76 -146.001z" />
    <glyph glyph-name="guillemotleft" unicode="&#xab;" horiz-adv-x="938" 
d="M436 465c83.333 66 164.668 135.666 244.001 208.999s121.666 110 126.999 110c4.66699 0 8.5 -1.5 11.5 -4.5s4.5 -6.83301 4.5 -11.5c0 -12.667 -15.667 -43.5 -47 -92.5s-80.333 -119.167 -147 -210.5c59.333 -79.333 106.5 -146.333 141.5 -201s52.5 -88 52.5 -100
c0 -6 -1 -10.167 -3 -12.5s-5.66699 -3.83301 -11 -4.5c-6.66699 0 -50 36.833 -130 110.5s-161 142.834 -243 207.501zM115.002 464.999c83.333 66 164.5 135.668 243.5 209.001s121.167 110 126.5 110c4.66699 0 8.66699 -1.5 12 -4.5s5 -6.83301 5 -11.5
c0 -12.667 -15.667 -43.5 -47 -92.5s-80.666 -119.167 -147.999 -210.5c59.333 -79.333 106.666 -146.333 141.999 -201s53 -88 53 -100c0 -5.33301 -1.5 -9.5 -4.5 -12.5s-7.16699 -4.5 -12.5 -4.5c-6 0 -48.667 36.667 -128 110s-160 142.666 -242 207.999z" />
    <glyph glyph-name="logicalnot" unicode="&#xac;" horiz-adv-x="1706" 
d="M254 864h1198v-502h-199v306h-999v196z" />
    <glyph glyph-name="sfthyphen" unicode="&#xad;" horiz-adv-x="676" 
d="M92 332v243h492v-243h-492z" />
    <glyph glyph-name="registered" unicode="&#xae;" horiz-adv-x="1683" 
d="M760 723c4.66699 -0.666992 10 -1.16699 16 -1.5s15 -0.5 27 -0.5c64 0 112 15 144 45s48 75 48 135c0 40 -14.333 74.333 -43 103s-64 43 -106 43c-29.333 0 -51 -5.5 -65 -16.5s-21 -27.5 -21 -49.5v-258zM465 1098l403 -0.000976562c97.333 0 175.333 -18.5 234 -55.5
s88 -84.833 88 -143.5c0 -57.333 -21.5 -102.166 -64.5 -134.499s-114.5 -57.166 -214.5 -74.499c63.333 -14.667 113 -37.834 149 -69.501s59.333 -73.167 70 -124.5c4 -16.667 7.33301 -41.334 10 -74.001c3.33301 -56 18.666 -84 45.999 -84
c18.667 0 32.834 9.83301 42.501 29.5s14.5 48.834 14.5 87.501v12h51v-23c0 -58.667 -14.667 -103.334 -44 -134.001s-72 -46 -128 -46c-31.333 0 -58.833 4.66699 -82.5 14s-42.5 23 -56.5 41c-18.667 26.667 -29.667 71.334 -33 134.001
c-1.33301 30 -3.33301 52.333 -6 67c-9.33301 52.667 -27.333 91.5 -54 116.5s-64 37.5 -112 37.5h-18v-246c0 -30.667 6.66699 -52.334 20 -65.001s39.333 -21.667 78 -27v-51h-393v50c40.667 2.66699 68.5 10.667 83.5 24s22.5 36.333 22.5 69v522
c0 32.667 -7.5 55.834 -22.5 69.501s-42.833 22.167 -83.5 25.5v53zM844 1309c-84 0 -164.5 -16.1699 -241.5 -48.5029s-144.833 -78.5 -203.5 -138.5c-59.333 -60 -104.5 -128 -135.5 -204s-46.5 -156 -46.5 -240c0 -85.333 15.5 -166 46.5 -242
s76.167 -143.667 135.5 -203c60 -59.333 127.333 -104.5 202 -135.5s155 -46.5 241 -46.5c84.667 0 164.667 15.667 240 47s142 76.333 200 135c59.333 60.667 104.833 129.334 136.5 206.001s47.5 156.334 47.5 239.001c0 83.333 -16.167 164.333 -48.5 243
s-77.5 146.334 -135.5 203.001c-58.667 58.667 -126.167 104.167 -202.5 136.5s-154.833 48.5 -235.5 48.5zM844 1413c96.667 0 191.331 -19.8301 283.998 -59.4971s173.334 -94.834 242.001 -165.501c65.333 -67.333 115.5 -146.166 150.5 -236.499
s52.5 -185.5 52.5 -285.5c0 -92.667 -20.333 -185 -61 -277s-97.667 -173.333 -171 -244c-66 -64 -141.833 -113 -227.5 -147s-176.167 -51 -271.5 -51c-73.333 0 -143.833 10.167 -211.5 30.5s-131.167 50.5 -190.5 90.5c-104.667 69.333 -185.667 157.166 -243 263.499
s-86 221.833 -86 346.5c0 97.333 18.333 190.666 55 279.999s89.334 168.666 158.001 237.999c68 69.333 147.167 122.833 237.5 160.5s184.5 56.5 282.5 56.5z" />
    <glyph glyph-name="macron" unicode="&#xaf;" 
d="M238 1128v140h540v-140h-540z" />
    <glyph glyph-name="degree" unicode="&#xb0;" horiz-adv-x="674" 
d="M338 1335c-48.667 0 -90.167 -17 -124.5 -51s-51.5 -75 -51.5 -123c0 -49.333 17 -91 51 -125s75.667 -51 125 -51c48 0 89 17.333 123 52s51 76 51 124s-17 89 -51 123s-75 51 -123 51zM338 1464c84 0 155.5 -29.835 214.5 -89.502s88.5 -131.5 88.5 -215.5
c0 -83.333 -29.667 -154.666 -89 -213.999s-131.333 -89 -216 -89c-84 0 -155.167 29.333 -213.5 88s-87.5 130.334 -87.5 215.001s29.5 156.667 88.5 216s130.5 89 214.5 89z" />
    <glyph glyph-name="plusminus" unicode="&#xb1;" horiz-adv-x="1706" 
d="M254 197h1198v-199h-1198v199zM752 1223h202v-326h498v-199h-498v-325h-202v325h-498v199h498v326z" />
    <glyph glyph-name="twosuperior" unicode="&#xb2;" horiz-adv-x="745" 
d="M45 547c35.333 82 110.33 183 224.997 303l49 53c40 44 69.5 87.333 88.5 130s28.5 86.667 28.5 132c0 51.333 -11.833 92.166 -35.5 122.499s-55.5 45.5 -95.5 45.5c-35.333 0 -62.833 -9.83301 -82.5 -29.5s-29.5 -47.167 -29.5 -82.5
c0 -24.667 6.83301 -45.167 20.5 -61.5s30.5 -24.5 50.5 -24.5c10.667 0 21 1.5 31 4.5s19.667 7.5 29 13.5c0 -1.33301 0.333008 -3.66602 1 -6.99902c2 -8.66699 3 -14 3 -16c0 -27.333 -10.5 -49.833 -31.5 -67.5s-48.167 -26.5 -81.5 -26.5
c-45.333 0 -82.666 14.333 -111.999 43s-44 65 -44 109c0 57.333 27.5 105.166 82.5 143.499s124.5 57.5 208.5 57.5c86.667 0 156.834 -21.333 210.501 -64s80.5 -98.667 80.5 -168c0 -46 -10.167 -86.167 -30.5 -120.5s-62.166 -76.166 -125.499 -125.499l-103 -74
c-82.667 -58.667 -137 -102.667 -163 -132h422l-55 -230h-51c0.666992 4.66699 2 11 4 19c2.66699 11.333 4 19.333 4 24c0 11.333 -3.5 19 -10.5 23s-26.167 6 -57.5 6h-6h-424z" />
    <glyph glyph-name="threesuperior" unicode="&#xb3;" horiz-adv-x="745" 
d="M397 1024l0.000976562 -9.99805h11c72.667 0 131 -18.5 175 -55.5s66 -85.5 66 -145.5c0 -32.667 -7.33301 -64.334 -22 -95.001s-36 -58.334 -64 -83.001c-40 -36 -84 -63.167 -132 -81.5s-99.667 -27.5 -155 -27.5c-70 0 -126.667 12.833 -170 38.5
s-65 58.834 -65 99.501c0 17.333 8 32.5 24 45.5s35.333 19.5 58 19.5c19.333 0 35.666 -5.33301 48.999 -16s27 -30 41 -58c14 -27.333 27.833 -46.333 41.5 -57s30.5 -16 50.5 -16c42.667 0 76.167 17.833 100.5 53.5s36.5 85.167 36.5 148.5
c0 64.667 -7.66699 111.667 -23 141s-39.666 44 -72.999 44c-14.667 0 -28.334 -4 -41.001 -12s-25 -20.333 -37 -37c-8.66699 -14 -17.167 -23.667 -25.5 -29s-17.5 -8 -27.5 -8c-12.667 0 -23 3.33301 -31 10s-12 15 -12 25c0 19.333 20.333 39.333 61 60
c17.333 8.66699 30.333 15.667 39 21c48 28 83.667 59 107 93s35 72.667 35 116c0 36 -10.167 64.833 -30.5 86.5s-47.166 32.5 -80.499 32.5c-30 0 -55.167 -8.33301 -75.5 -25s-30.5 -37 -30.5 -61c0 -16.667 5 -30.334 15 -41.001s22.667 -16 38 -16
c8.66699 0 17.167 1.33301 25.5 4s16.833 6.66699 25.5 12c0 -0.666992 0.333008 -3 1 -7s1 -7 1 -9c0 -28 -10.333 -50.333 -31 -67s-48.667 -25 -84 -25c-32 0 -58 10 -78 30s-30 46 -30 78c0 50 28 94.333 84 133s123 58 201 58c69.333 0 125.166 -15 167.499 -45
s63.5 -69 63.5 -117c0 -43.333 -16.5 -82 -49.5 -116s-82.833 -63.667 -149.5 -89z" />
    <glyph glyph-name="acute" unicode="&#xb4;" 
d="M332 1036l276.002 298.998c17.333 19.333 35.666 34.5 54.999 45.5s37.333 16.5 54 16.5c20 0 37.333 -7.66699 52 -23s22 -33.666 22 -54.999c0 -17.333 -5.83301 -33.166 -17.5 -47.499s-33.834 -31.833 -66.501 -52.5l-299 -183h-76z" />
    <glyph glyph-name="mu" unicode="&#xb5;" horiz-adv-x="1202" 
d="M178 209c-8 -63.333 -17.6621 -147.332 -28.9951 -251.999c-26.667 -254 -78.334 -381 -155.001 -381c-36 0 -64.167 10.167 -84.5 30.5s-30.5 48.5 -30.5 84.5c0 31.333 22.667 122.666 68 273.999s80.666 287.333 105.999 408l109 512h256l-99 -459
c-7.33301 -35.333 -12.833 -65 -16.5 -89s-5.5 -43.333 -5.5 -58c0 -39.333 10.167 -70 30.5 -92s48.5 -33 84.5 -33c47.333 0 86 17.667 116 53s52.667 90.666 68 165.999l109 512h256l-115 -533c-6 -27.333 -10.333 -49.5 -13 -66.5s-4 -31.5 -4 -43.5
c0 -31.333 5.83301 -53.833 17.5 -67.5s30.5 -20.5 56.5 -20.5c26.667 0 48.667 6 66 18s32.333 31.667 45 59l21 50c18 46 36.333 69 55 69c10 0 17.833 -3.33301 23.5 -10s8.5 -16.334 8.5 -29.001c0 -22.667 -5.5 -52.167 -16.5 -88.5s-25.167 -70.166 -42.5 -101.499
c-27.333 -49.333 -60.333 -86 -99 -110s-84.334 -36 -137.001 -36c-56.667 0 -99.834 16 -129.501 48s-47.834 82.333 -54.501 151c-26.667 -70.667 -59.5 -121.5 -98.5 -152.5s-88.833 -46.5 -149.5 -46.5c-62 0 -111.833 20.333 -149.5 61s-60.167 98.334 -67.5 173.001z
" />
    <glyph glyph-name="paragraph" unicode="&#xb6;" 
d="M983 1479v-111h-113v-1368h-151v1368h-158v-1368h-153v784c-111.333 4 -200.333 37.667 -267 101s-100 145 -100 245c0 105.333 35.667 189.833 107 253.5s166 95.5 284 95.5h551z" />
    <glyph glyph-name="periodcentered" unicode="&#xb7;" horiz-adv-x="563" 
d="M111 698c0 47.333 16.667 87.5 50 120.5s74 49.5 122 49.5c47.333 0 87.5 -16.333 120.5 -49s49.5 -73 49.5 -121c0 -46.667 -16.667 -87 -50 -121s-73.333 -51 -120 -51c-47.333 0 -87.833 17 -121.5 51s-50.5 74.333 -50.5 121z" />
    <glyph glyph-name="cedilla" unicode="&#xb8;" 
d="M268 -379l39.002 89.999c40 -25.333 79.833 -44.666 119.5 -57.999s77.167 -20 112.5 -20c37.333 0 65 7.33301 83 22s27 37.667 27 69c0 28 -9 49.333 -27 64s-45 22 -81 22c-10 -0.666992 -20 -1.5 -30 -2.5s-20.667 -2.16699 -32 -3.5v196h66v-115
c7.33301 1.33301 15.166 2.33301 23.499 3s20.833 1 37.5 1c58.667 0 104.5 -14.5 137.5 -43.5s49.5 -69.5 49.5 -121.5c0 -56 -19.833 -99.833 -59.5 -131.5s-95.167 -47.5 -166.5 -47.5c-39.333 0 -83.333 6.33301 -132 19s-104.334 31.667 -167.001 57z" />
    <glyph glyph-name="onesuperior" unicode="&#xb9;" horiz-adv-x="745" 
d="M146 543l-1.00098 48.999c54.667 0 89.834 5.83301 105.501 17.5s23.5 37.167 23.5 76.5v516c0 30.667 -6.16699 50.667 -18.5 60s-42.166 14 -89.499 14h-21v45c61.333 5.33301 115 13.5 161 24.5s87.333 25.5 124 43.5h47c0 -9.33301 -0.666992 -22.666 -2 -39.999
c-1.33301 -32.667 -2 -53.667 -2 -63v-602c0 -38.667 8.5 -63.667 25.5 -75s52.167 -17 105.5 -17v-49c-10.667 0 -27.334 0.333008 -50.001 1c-86 2 -145 3 -177 3c-26.667 0 -56 -0.333008 -88 -1z" />
    <glyph glyph-name="ordmasculine" unicode="&#xba;" horiz-adv-x="840" 
d="M86 594h668v-113h-668v113zM418 1329c-47.333 0 -82.333 -23.001 -105 -69.001s-34 -117 -34 -213c0 -90.667 10.833 -154.667 32.5 -192s58.5 -56 110.5 -56c49.333 0 84.833 21.333 106.5 64s32.5 113.334 32.5 212.001c0 89.333 -11.333 154 -34 194s-59 60 -109 60z
M428 1405c111.333 0 203.001 -31.332 275.001 -93.999s108 -142 108 -238c0 -104 -36.5 -188.333 -109.5 -253s-168.833 -97 -287.5 -97c-112.667 0 -205 32 -277 96s-108 145.333 -108 244c0 99.333 37.167 181.166 111.5 245.499s170.166 96.5 287.499 96.5z" />
    <glyph glyph-name="guillemotright" unicode="&#xbb;" horiz-adv-x="938" 
d="M823 465c-82.667 -65.333 -163.666 -134.668 -242.999 -208.001s-121.666 -110 -126.999 -110c-5.33301 0.666992 -9.5 2.33398 -12.5 5.00098s-4.5 6 -4.5 10c0 12.667 15.667 43.5 47 92.5s80.666 119.167 147.999 210.5c-58.667 78 -105.834 145 -141.501 201
s-53.5 90 -53.5 102c0 5.33301 1.5 9.33301 4.5 12s7.16699 4 12.5 4c6 0 48.5 -36.833 127.5 -110.5s159.833 -143.167 242.5 -208.5zM502.001 464.998c-83.333 -65.333 -164.668 -134.667 -244.001 -208s-121.666 -110 -126.999 -110
c-5.33301 0.666992 -9.33301 2.16699 -12 4.5s-4 5.83301 -4 10.5c0 13.333 16 45.333 48 96s80 119.667 144 207c-58.667 78 -105.667 145 -141 201s-53 90 -53 102c0 5.33301 1.33301 9.33301 4 12s6.66699 4 12 4c6 0 49 -37 129 -111s161.333 -143.333 244 -208z" />
    <glyph glyph-name="onequarter" unicode="&#xbc;" horiz-adv-x="1763" 
d="M1153 299h258l10 309zM1285 -2l0.000976562 45c55.333 2 90.166 7.83301 104.499 17.5s21.5 30.5 21.5 62.5v108h-336v70l430 485h90v-487h136v-68h-136v-112c0 -28 7 -47 21 -57s48.667 -16.333 104 -19v-45c-26 0.666992 -54.167 1.16699 -84.5 1.5
s-73.833 0.5 -130.5 0.5c-65.333 -0 -112.833 -0.166992 -142.5 -0.5s-55.5 -0.833008 -77.5 -1.5zM369.001 -33l917 1436h107l-916 -1436h-108zM139.001 598l0.00195312 45.001c51.333 0 84.333 5.5 99 16.5s22 35.5 22 73.5v479c0 30 -6.33301 49.5 -19 58.5
s-41 13.5 -85 13.5h-17v41c59.333 5.33301 111 13.166 155 23.499s82.667 23.833 116 40.5h45c-0.666992 -9.33301 -1.33398 -22.333 -2.00098 -39c-1.33301 -30 -2 -49.333 -2 -58v-561c0 -36.667 8.16699 -60.5 24.5 -71.5s49.5 -16.5 99.5 -16.5v-45
c-10 0 -24.667 0.333008 -44 1c-84.667 2 -142.334 3 -173.001 3c-47.333 0 -118.333 -1.33301 -213 -4h-6z" />
    <glyph glyph-name="onehalf" unicode="&#xbd;" horiz-adv-x="1763" 
d="M1096 0c34.667 78 108.333 174.334 221 289.001l41 43c38 42 65.833 83 83.5 123s26.5 81 26.5 123c0 47.333 -11.167 85 -33.5 113s-52.833 42 -91.5 42c-33.333 0 -59.666 -9.33301 -78.999 -28s-29 -44 -29 -76c0 -22.667 6.83301 -41.667 20.5 -57
s30.167 -23 49.5 -23c11.333 0 21.5 1.33301 30.5 4s17.833 6.66699 26.5 12c0.666992 -2.66699 1.16699 -5.5 1.5 -8.5s0.5 -6.83301 0.5 -11.5c0 -26 -9.83301 -47.167 -29.5 -63.5s-45.5 -24.5 -77.5 -24.5c-42.667 0 -77.834 13.167 -105.501 39.5
s-41.5 60.166 -41.5 101.499c0 54 26 98.833 78 134.5s118 53.5 198 53.5c84 0 151.5 -19.833 202.5 -59.5s76.5 -92.167 76.5 -157.5c0 -42 -9.66699 -79 -29 -111s-59.333 -71.333 -120 -118l-100 -71c-78 -54.667 -129.333 -95.334 -154 -122.001h403l-53 -213h-49
c0 2 0.666992 5 2 9c4 16 6 26 6 30c0 10.667 -3.33301 17.834 -10 21.501s-24.667 5.5 -54 5.5h-6h-405zM368.999 -32.999l917 1436h107l-916 -1436h-108zM138.999 598.001l0.00195312 45.001c51.333 0 84.333 5.5 99 16.5s22 35.5 22 73.5v479
c0 30 -6.33301 49.5 -19 58.5s-41 13.5 -85 13.5h-17v41c59.333 5.33301 111 13.166 155 23.499s82.667 23.833 116 40.5h45c-0.666992 -9.33301 -1.33398 -22.333 -2.00098 -39c-1.33301 -30 -2 -49.333 -2 -58v-561c0 -36.667 8.16699 -60.5 24.5 -71.5
s49.5 -16.5 99.5 -16.5v-45c-10 0 -24.667 0.333008 -44 1c-84.667 2 -142.334 3 -173.001 3c-47.333 0 -118.333 -1.33301 -213 -4h-6z" />
    <glyph glyph-name="threequarters" unicode="&#xbe;" horiz-adv-x="1763" 
d="M1153 299h258l10 309zM1285 -2l0.000976562 45c55.333 2 90.166 7.83301 104.499 17.5s21.5 30.5 21.5 62.5v108h-336v70l430 485h90v-487h136v-68h-136v-112c0 -28 7 -47 21 -57s48.667 -16.333 104 -19v-45c-26 0.666992 -54.167 1.16699 -84.5 1.5
s-73.833 0.5 -130.5 0.5c-65.333 -0 -112.833 -0.166992 -142.5 -0.5s-55.5 -0.833008 -77.5 -1.5zM369.001 -33l917 1436h107l-916 -1436h-108zM379.001 1047l0.000976562 -8.99805h10c69.333 0 124.833 -17 166.5 -51s62.5 -79 62.5 -135
c0 -32 -6.83301 -62.333 -20.5 -91s-33.834 -54.334 -60.501 -77.001c-38 -33.333 -79.5 -58.333 -124.5 -75s-94.5 -25 -148.5 -25c-67.333 0 -121.333 11.667 -162 35s-61 54 -61 92c0 16.667 7.33301 31 22 43s32.667 18 54 18c18.667 0 34.667 -5.16699 48 -15.5
s26.666 -28.5 39.999 -54.5c12.667 -25.333 25.334 -42.833 38.001 -52.5s28.667 -14.5 48 -14.5c40.667 0 72.667 16.667 96 50s35 80 35 140c0 59.333 -7.33301 102.5 -22 129.5s-38 40.5 -70 40.5c-14.667 0 -28.167 -3.66699 -40.5 -11s-23.5 -18.666 -33.5 -33.999
c-10 -13.333 -18.667 -22.5 -26 -27.5s-15.666 -7.5 -24.999 -7.5c-12 0 -21.5 3.16699 -28.5 9.5s-10.5 14.166 -10.5 23.499c0 19.333 20 39.333 60 60c14.667 7.33301 26 13.333 34 18c45.333 26 79.166 55 101.499 87s33.5 68 33.5 108c0 32 -10 58.333 -30 79
s-45.333 31 -76 31c-28.667 0 -52.667 -7.83301 -72 -23.5s-29 -35.167 -29 -58.5c0 -14.667 4.83301 -26.834 14.5 -36.501s22.167 -14.5 37.5 -14.5c8 0 15.833 1.16699 23.5 3.5s15.5 5.83301 23.5 10.5c0 -1.33301 0.333008 -3.66602 1 -6.99902s1 -5.66602 1 -6.99902
c0 -26.667 -9.66699 -47.667 -29 -63s-46 -23 -80 -23c-30.667 0 -55.667 9.16699 -75 27.5s-29 41.833 -29 70.5c0 48 26.667 89.833 80 125.5s117.333 53.5 192 53.5c66.667 0 120.167 -13.833 160.5 -41.5s60.5 -63.834 60.5 -108.501c0 -40 -15.667 -75.833 -47 -107.5
s-79 -59.834 -143 -84.501z" />
    <glyph glyph-name="questiondown" unicode="&#xbf;" horiz-adv-x="897" 
d="M653 930v-418.001c-10 1.33301 -21.833 2.33301 -35.5 3s-35.834 1 -66.501 1c-110 0 -188 -12.5 -234 -37.5s-69 -66.5 -69 -124.5c0 -56 17.5 -101.333 52.5 -136s81.5 -52 139.5 -52c26 0 62.5 4.5 109.5 13.5s82.167 13.5 105.5 13.5
c42.667 0 75.5 -9.83301 98.5 -29.5s34.5 -47.5 34.5 -83.5c0 -36.667 -13.333 -64 -40 -82s-67.667 -27 -123 -27c-43.333 0 -86 6.16699 -128 18.5s-84 30.833 -126 55.5c-73.333 42.667 -133 101.834 -179 177.501s-69 152.5 -69 230.5
c0 102.667 31.833 180.167 95.5 232.5s158.167 78.5 283.5 78.5c16.667 0 29.334 -0.166992 38.001 -0.5s17 -0.833008 25 -1.5v168h88zM788 1233c0 -47.333 -16.667 -87.5 -50 -120.5s-74 -49.5 -122 -49.5c-47.333 0 -87.5 16.5 -120.5 49.5s-49.5 73.167 -49.5 120.5
c0 46.667 16.833 86.667 50.5 120s74.167 50 121.5 50s87.5 -16.5 120.5 -49.5s49.5 -73.167 49.5 -120.5z" />
    <glyph glyph-name="Agrave" unicode="&#xc0;" horiz-adv-x="1456" 
d="M-8 -6v83.999c48.667 4 89.5 18.667 122.5 44s60.5 64 82.5 116l493 1163h103l460 -1159c24 -59.333 51 -100.5 81 -123.5s72 -36.5 126 -40.5v-84c-59.333 2 -118.666 3.5 -177.999 4.5s-118 1.5 -176 1.5s-116.167 -0.5 -174.5 -1.5s-117.5 -2.5 -177.5 -4.5v84
c74 3.33301 122.167 10.666 144.5 21.999s33.5 31.333 33.5 60c0 15.333 -3.66699 36.833 -11 64.5s-17.333 57.834 -30 90.501l-41 109h-459l-35 -80c-12 -29.333 -21.833 -58.166 -29.5 -86.499s-11.5 -50.833 -11.5 -67.5c0 -38.667 13.667 -67 41 -85
s69.666 -27 126.999 -27v-84c-43.333 2 -86 3.5 -128 4.5s-83.333 1.5 -124 1.5c-39.333 0 -79 -0.5 -119 -1.5s-80 -2.5 -120 -4.5zM434 523.999h377l-180 477zM920 1515l-73.999 0.00195312l-301 183c-32.667 20.667 -54.834 38.167 -66.501 52.5
s-17.5 30.166 -17.5 47.499c0 21.333 7.5 39.666 22.5 54.999s32.833 23 53.5 23c16 0 33.333 -5.33301 52 -16s37 -26 55 -46z" />
    <glyph glyph-name="Aacute" unicode="&#xc1;" horiz-adv-x="1456" 
d="M-8 -6v83.999c48.667 4 89.5 18.667 122.5 44s60.5 64 82.5 116l493 1163h103l460 -1159c24 -59.333 51 -100.5 81 -123.5s72 -36.5 126 -40.5v-84c-59.333 2 -118.666 3.5 -177.999 4.5s-118 1.5 -176 1.5s-116.167 -0.5 -174.5 -1.5s-117.5 -2.5 -177.5 -4.5v84
c74 3.33301 122.167 10.666 144.5 21.999s33.5 31.333 33.5 60c0 15.333 -3.66699 36.833 -11 64.5s-17.333 57.834 -30 90.501l-41 109h-459l-35 -80c-12 -29.333 -21.833 -58.166 -29.5 -86.499s-11.5 -50.833 -11.5 -67.5c0 -38.667 13.667 -67 41 -85
s69.666 -27 126.999 -27v-84c-43.333 2 -86 3.5 -128 4.5s-83.333 1.5 -124 1.5c-39.333 0 -79 -0.5 -119 -1.5s-80 -2.5 -120 -4.5zM434 523.999h377l-180 477zM568 1515l276.002 298.998c17.333 19.333 35.666 34.5 54.999 45.5s37.333 16.5 54 16.5
c20 0 37.333 -7.66699 52 -23s22 -33.666 22 -54.999c0 -17.333 -5.83301 -33.166 -17.5 -47.499s-33.834 -31.833 -66.501 -52.5l-299 -183h-76z" />
    <glyph glyph-name="Acircumflex" unicode="&#xc2;" horiz-adv-x="1456" 
d="M-8 -6v83.999c48.667 4 89.5 18.667 122.5 44s60.5 64 82.5 116l493 1163h103l460 -1159c24 -59.333 51 -100.5 81 -123.5s72 -36.5 126 -40.5v-84c-59.333 2 -118.666 3.5 -177.999 4.5s-118 1.5 -176 1.5s-116.167 -0.5 -174.5 -1.5s-117.5 -2.5 -177.5 -4.5v84
c74 3.33301 122.167 10.666 144.5 21.999s33.5 31.333 33.5 60c0 15.333 -3.66699 36.833 -11 64.5s-17.333 57.834 -30 90.501l-41 109h-459l-35 -80c-12 -29.333 -21.833 -58.166 -29.5 -86.499s-11.5 -50.833 -11.5 -67.5c0 -38.667 13.667 -67 41 -85
s69.666 -27 126.999 -27v-84c-43.333 2 -86 3.5 -128 4.5s-83.333 1.5 -124 1.5c-39.333 0 -79 -0.5 -119 -1.5s-80 -2.5 -120 -4.5zM434 523.999h377l-180 477zM449 1515l229 348h133l228 -348h-74l-221 195l-221 -195h-74z" />
    <glyph glyph-name="Atilde" unicode="&#xc3;" horiz-adv-x="1456" 
d="M-8 -6v83.999c48.667 4 89.5 18.667 122.5 44s60.5 64 82.5 116l493 1163h103l460 -1159c24 -59.333 51 -100.5 81 -123.5s72 -36.5 126 -40.5v-84c-59.333 2 -118.666 3.5 -177.999 4.5s-118 1.5 -176 1.5s-116.167 -0.5 -174.5 -1.5s-117.5 -2.5 -177.5 -4.5v84
c74 3.33301 122.167 10.666 144.5 21.999s33.5 31.333 33.5 60c0 15.333 -3.66699 36.833 -11 64.5s-17.333 57.834 -30 90.501l-41 109h-459l-35 -80c-12 -29.333 -21.833 -58.166 -29.5 -86.499s-11.5 -50.833 -11.5 -67.5c0 -38.667 13.667 -67 41 -85
s69.666 -27 126.999 -27v-84c-43.333 2 -86 3.5 -128 4.5s-83.333 1.5 -124 1.5c-39.333 0 -79 -0.5 -119 -1.5s-80 -2.5 -120 -4.5zM434 523.999h377l-180 477zM1027 1833c-14.667 -75.333 -38.4971 -132.5 -71.4971 -171.5s-74.167 -58.5 -123.5 -58.5
c-8 0 -16.167 0.5 -24.5 1.5s-17.5 2.83301 -27.5 5.5l-106 26c-11.333 2.66699 -21.5 4.66699 -30.5 6s-16.5 2 -22.5 2c-28 0 -49.667 -6.66699 -65 -20s-27.666 -36.666 -36.999 -69.999h-58c15.333 78 39.166 136.167 71.499 174.5s74.166 57.5 125.499 57.5
c10.667 0 21.5 -0.833008 32.5 -2.5s21.167 -3.83398 30.5 -6.50098l108 -26c8.66699 -2 17.167 -3.5 25.5 -4.5s17.166 -1.5 26.499 -1.5c22.667 0 41.167 7.16699 55.5 21.5s25.166 36.5 32.499 66.5h58z" />
    <glyph glyph-name="Adieresis" unicode="&#xc4;" horiz-adv-x="1456" 
d="M-8 -6v83.999c48.667 4 89.5 18.667 122.5 44s60.5 64 82.5 116l493 1163h103l460 -1159c24 -59.333 51 -100.5 81 -123.5s72 -36.5 126 -40.5v-84c-59.333 2 -118.666 3.5 -177.999 4.5s-118 1.5 -176 1.5s-116.167 -0.5 -174.5 -1.5s-117.5 -2.5 -177.5 -4.5v84
c74 3.33301 122.167 10.666 144.5 21.999s33.5 31.333 33.5 60c0 15.333 -3.66699 36.833 -11 64.5s-17.333 57.834 -30 90.501l-41 109h-459l-35 -80c-12 -29.333 -21.833 -58.166 -29.5 -86.499s-11.5 -50.833 -11.5 -67.5c0 -38.667 13.667 -67 41 -85
s69.666 -27 126.999 -27v-84c-43.333 2 -86 3.5 -128 4.5s-83.333 1.5 -124 1.5c-39.333 0 -79 -0.5 -119 -1.5s-80 -2.5 -120 -4.5zM434 523.999h377l-180 477zM439 1677c0 30 11.167 56.333 33.5 79s48.5 34 78.5 34c30.667 0 57.167 -11.167 79.5 -33.5
s33.5 -48.833 33.5 -79.5c0 -32.667 -10.5 -59.667 -31.5 -81s-48.167 -32 -81.5 -32c-32.667 0 -59.5 10.667 -80.5 32s-31.5 48.333 -31.5 81zM824 1677c0 30 11.167 56.333 33.5 79s48.5 34 78.5 34c30.667 0 57.167 -11.167 79.5 -33.5s33.5 -48.833 33.5 -79.5
c0 -32.667 -10.5 -59.667 -31.5 -81s-48.167 -32 -81.5 -32c-32 0 -58.667 10.833 -80 32.5s-32 48.5 -32 80.5z" />
    <glyph glyph-name="Aring" unicode="&#xc5;" horiz-adv-x="1456" 
d="M592 1716c0 -39.333 13.833 -72.667 41.5 -100s61.5 -41 101.5 -41s73.667 13.5 101 40.5s41 60.5 41 100.5s-13.833 74 -41.5 102s-61.167 42 -100.5 42c-40 0 -73.833 -14 -101.5 -42s-41.5 -62 -41.5 -102zM485 1718c0 69.333 24.167 127.666 72.5 174.999
s107.5 71 177.5 71s128.833 -23.667 176.5 -71s71.5 -105.666 71.5 -174.999s-23.833 -128 -71.5 -176s-106.5 -72 -176.5 -72s-129.167 24 -177.5 72s-72.5 106.667 -72.5 176zM434 523.999h377l-180 477zM-8 -6.00098v83.999c48.667 4 89.5 18.667 122.5 44
s60.5 64 82.5 116l493 1163h103l460 -1159c24 -59.333 51 -100.5 81 -123.5s72 -36.5 126 -40.5v-84c-59.333 2 -118.666 3.5 -177.999 4.5s-118 1.5 -176 1.5s-116.167 -0.5 -174.5 -1.5s-117.5 -2.5 -177.5 -4.5v84c74 3.33301 122.167 10.666 144.5 21.999
s33.5 31.333 33.5 60c0 15.333 -3.66699 36.833 -11 64.5s-17.333 57.834 -30 90.501l-41 109h-459l-35 -80c-12 -29.333 -21.833 -58.166 -29.5 -86.499s-11.5 -50.833 -11.5 -67.5c0 -38.667 13.667 -67 41 -85s69.666 -27 126.999 -27v-84c-43.333 2 -86 3.5 -128 4.5
s-83.333 1.5 -124 1.5c-39.333 0 -79 -0.5 -119 -1.5s-80 -2.5 -120 -4.5z" />
    <glyph glyph-name="AE" unicode="&#xc6;" horiz-adv-x="1864" 
d="M1802 412l0.00292969 -418.004c-74.667 2 -156.334 3.5 -245.001 4.5s-222.667 1.5 -402 1.5c-200 0 -335.167 -0.5 -405.5 -1.5s-124.833 -2.5 -163.5 -4.5v84c76.667 2 127.167 15.833 151.5 41.5s36.5 83.5 36.5 173.5v295h-358l-133 -289
c-11.333 -23.333 -19.666 -44.833 -24.999 -64.5s-8 -37.167 -8 -52.5c0 -33.333 12.667 -58.666 38 -75.999s63.666 -26.666 114.999 -27.999v-84c-36.667 2 -70.334 3.5 -101.001 4.5s-58.334 1.5 -83.001 1.5c-64.667 0 -140.334 -1.66699 -227.001 -5
c-12.667 -0.666992 -21.667 -1 -27 -1v84c44 10 81.833 30.833 113.5 62.5s64.167 83.167 97.5 154.5l395 858c9.33301 20.667 15.833 36.834 19.5 48.501s5.5 20.834 5.5 27.501c0 26.667 -10.333 45 -31 55s-71.667 17 -153 21v73c20.667 -1.33301 43.5 -2.33301 68.5 -3
s63.5 -1 115.5 -1h201c193.333 0 363.5 0.833008 510.5 2.5s283.833 4.16699 410.5 7.5v-358h-82c-16 94.667 -54.667 161.667 -116 201s-160.333 59 -297 59c-45.333 0 -77.166 -3 -95.499 -9s-27.5 -16 -27.5 -30v-481h33c80.667 0 139.667 17.167 177 51.5
s62 94.166 74 179.499h82l-3 -160c-0.666992 -36.667 -1 -70.667 -1 -102c0 -44.667 1 -125.334 3 -242.001c0.666992 -22.667 1 -39.667 1 -51h-77c-13.333 82 -39 140.833 -77 176.5s-94.333 53.5 -169 53.5c-12 0 -20.833 -0.166992 -26.5 -0.5
s-11.167 -1.16602 -16.5 -2.49902v-384c0 -61.333 19.5 -107.166 58.5 -137.499s97.833 -45.5 176.5 -45.5c122 0 213.167 24.167 273.5 72.5s98.833 127.5 115.5 237.5h78zM465.003 689.996l311.002 0.00195312v584c0 8.66699 -1.83301 15.667 -5.5 21s-8.5 8 -14.5 8
c-6.66699 -0.666992 -12.334 -3.33398 -17.001 -8.00098s-9.33398 -12.334 -14.001 -23.001z" />
    <glyph glyph-name="Ccedilla" unicode="&#xc7;" horiz-adv-x="1456" 
d="M1264 479l86.002 -0.000976562v-479h-84l-45 117c-70 -52.667 -141.5 -91.5 -214.5 -116.5s-150.5 -37.5 -232.5 -37.5c-207.333 0 -375.833 64.5 -505.5 193.5s-194.5 296.5 -194.5 502.5c0 88 11.333 169.667 34 245s57 144 103 206
c71.333 96 156.166 168.5 254.499 217.5s208.166 73.5 329.499 73.5c78 0 150.167 -10.667 216.5 -32s127.833 -53.666 184.5 -96.999l35 114h90l12 -442h-86c-30 112 -78.833 199 -146.5 261s-147.167 93 -238.5 93c-128 0 -230.333 -55.167 -307 -165.5
s-115 -259.833 -115 -448.5s37 -335.5 111 -440.5s176.333 -157.5 307 -157.5c104 0 190.5 33.5 259.5 100.5s117.833 164.5 146.5 292.5zM524.002 -379.001l39.002 89.999c40 -25.333 79.833 -44.666 119.5 -57.999s77.167 -20 112.5 -20c37.333 0 65 7.33301 83 22
s27 37.667 27 69c0 28 -9 49.333 -27 64s-45 22 -81 22c-10 -0.666992 -20 -1.5 -30 -2.5s-20.667 -2.16699 -32 -3.5v196h66v-115c7.33301 1.33301 15.166 2.33301 23.499 3s20.833 1 37.5 1c58.667 0 104.5 -14.5 137.5 -43.5s49.5 -69.5 49.5 -121.5
c0 -56 -19.833 -99.833 -59.5 -131.5s-95.167 -47.5 -166.5 -47.5c-39.333 0 -83.333 6.33301 -132 19s-104.334 31.667 -167.001 57z" />
    <glyph glyph-name="Egrave" unicode="&#xc8;" horiz-adv-x="1354" 
d="M72 -10l-0.00390625 85.998c76.667 0 127.834 15.833 153.501 47.5s38.5 105.167 38.5 220.5v758c0 74.667 -12.833 126.334 -38.5 155.001s-71.5 43 -137.5 43h-16v80c72 -4 142.833 -7 212.5 -9s138.834 -3 207.501 -3c104 0 215.833 1 335.5 3s244.5 5 374.5 9v-358
h-84c-22.667 99.333 -60 166.5 -112 201.5s-154 52.5 -306 52.5c-53.333 0 -85.666 -3.5 -96.999 -10.5s-17 -24.833 -17 -53.5v-450h35c79.333 0 137.333 16.333 174 49s63 92.667 79 180h86c-3.33301 -38 -5.83301 -78.5 -7.5 -121.5s-2.5 -91.833 -2.5 -146.5
c0 -47.333 0.833008 -94.5 2.5 -141.5s4.16699 -94.833 7.5 -143.5h-81c-15.333 86 -42.333 145.833 -81 179.5s-100.667 50.5 -186 50.5h-26v-367c0 -71.333 18 -122.666 54 -153.999s95.667 -47 179 -47c124.667 0 215.334 22.667 272.001 68s95.667 125.333 117 240h76
v-416c-106 2.66699 -213.667 4.66699 -323 6s-251.333 2 -426 2h-121c-95.333 0 -166.5 -0.833008 -213.5 -2.5s-89.833 -4.16699 -128.5 -7.5zM884.996 1515l-73.999 0.00195312l-301 183c-32.667 20.667 -54.834 38.167 -66.501 52.5s-17.5 30.166 -17.5 47.499
c0 21.333 7.5 39.666 22.5 54.999s32.833 23 53.5 23c16 0 33.333 -5.33301 52 -16s37 -26 55 -46z" />
    <glyph glyph-name="Eacute" unicode="&#xc9;" horiz-adv-x="1354" 
d="M72 -10l-0.00390625 85.998c76.667 0 127.834 15.833 153.501 47.5s38.5 105.167 38.5 220.5v758c0 74.667 -12.833 126.334 -38.5 155.001s-71.5 43 -137.5 43h-16v80c72 -4 142.833 -7 212.5 -9s138.834 -3 207.501 -3c104 0 215.833 1 335.5 3s244.5 5 374.5 9v-358
h-84c-22.667 99.333 -60 166.5 -112 201.5s-154 52.5 -306 52.5c-53.333 0 -85.666 -3.5 -96.999 -10.5s-17 -24.833 -17 -53.5v-450h35c79.333 0 137.333 16.333 174 49s63 92.667 79 180h86c-3.33301 -38 -5.83301 -78.5 -7.5 -121.5s-2.5 -91.833 -2.5 -146.5
c0 -47.333 0.833008 -94.5 2.5 -141.5s4.16699 -94.833 7.5 -143.5h-81c-15.333 86 -42.333 145.833 -81 179.5s-100.667 50.5 -186 50.5h-26v-367c0 -71.333 18 -122.666 54 -153.999s95.667 -47 179 -47c124.667 0 215.334 22.667 272.001 68s95.667 125.333 117 240h76
v-416c-106 2.66699 -213.667 4.66699 -323 6s-251.333 2 -426 2h-121c-95.333 0 -166.5 -0.833008 -213.5 -2.5s-89.833 -4.16699 -128.5 -7.5zM532.996 1515l276.002 298.998c17.333 19.333 35.666 34.5 54.999 45.5s37.333 16.5 54 16.5c20 0 37.333 -7.66699 52 -23
s22 -33.666 22 -54.999c0 -17.333 -5.83301 -33.166 -17.5 -47.499s-33.834 -31.833 -66.501 -52.5l-299 -183h-76z" />
    <glyph glyph-name="Ecircumflex" unicode="&#xca;" horiz-adv-x="1354" 
d="M72 -10l-0.00390625 85.998c76.667 0 127.834 15.833 153.501 47.5s38.5 105.167 38.5 220.5v758c0 74.667 -12.833 126.334 -38.5 155.001s-71.5 43 -137.5 43h-16v80c72 -4 142.833 -7 212.5 -9s138.834 -3 207.501 -3c104 0 215.833 1 335.5 3s244.5 5 374.5 9v-358
h-84c-22.667 99.333 -60 166.5 -112 201.5s-154 52.5 -306 52.5c-53.333 0 -85.666 -3.5 -96.999 -10.5s-17 -24.833 -17 -53.5v-450h35c79.333 0 137.333 16.333 174 49s63 92.667 79 180h86c-3.33301 -38 -5.83301 -78.5 -7.5 -121.5s-2.5 -91.833 -2.5 -146.5
c0 -47.333 0.833008 -94.5 2.5 -141.5s4.16699 -94.833 7.5 -143.5h-81c-15.333 86 -42.333 145.833 -81 179.5s-100.667 50.5 -186 50.5h-26v-367c0 -71.333 18 -122.666 54 -153.999s95.667 -47 179 -47c124.667 0 215.334 22.667 272.001 68s95.667 125.333 117 240h76
v-416c-106 2.66699 -213.667 4.66699 -323 6s-251.333 2 -426 2h-121c-95.333 0 -166.5 -0.833008 -213.5 -2.5s-89.833 -4.16699 -128.5 -7.5zM413.996 1515l229 348h133l228 -348h-74l-221 195l-221 -195h-74z" />
    <glyph glyph-name="Edieresis" unicode="&#xcb;" horiz-adv-x="1354" 
d="M72 -10l-0.00390625 85.998c76.667 0 127.834 15.833 153.501 47.5s38.5 105.167 38.5 220.5v758c0 74.667 -12.833 126.334 -38.5 155.001s-71.5 43 -137.5 43h-16v80c72 -4 142.833 -7 212.5 -9s138.834 -3 207.501 -3c104 0 215.833 1 335.5 3s244.5 5 374.5 9v-358
h-84c-22.667 99.333 -60 166.5 -112 201.5s-154 52.5 -306 52.5c-53.333 0 -85.666 -3.5 -96.999 -10.5s-17 -24.833 -17 -53.5v-450h35c79.333 0 137.333 16.333 174 49s63 92.667 79 180h86c-3.33301 -38 -5.83301 -78.5 -7.5 -121.5s-2.5 -91.833 -2.5 -146.5
c0 -47.333 0.833008 -94.5 2.5 -141.5s4.16699 -94.833 7.5 -143.5h-81c-15.333 86 -42.333 145.833 -81 179.5s-100.667 50.5 -186 50.5h-26v-367c0 -71.333 18 -122.666 54 -153.999s95.667 -47 179 -47c124.667 0 215.334 22.667 272.001 68s95.667 125.333 117 240h76
v-416c-106 2.66699 -213.667 4.66699 -323 6s-251.333 2 -426 2h-121c-95.333 0 -166.5 -0.833008 -213.5 -2.5s-89.833 -4.16699 -128.5 -7.5zM403.996 1677c0 30 11.167 56.333 33.5 79s48.5 34 78.5 34c30.667 0 57.167 -11.167 79.5 -33.5s33.5 -48.833 33.5 -79.5
c0 -32.667 -10.5 -59.667 -31.5 -81s-48.167 -32 -81.5 -32c-32.667 0 -59.5 10.667 -80.5 32s-31.5 48.333 -31.5 81zM788.996 1677c0 30 11.167 56.333 33.5 79s48.5 34 78.5 34c30.667 0 57.167 -11.167 79.5 -33.5s33.5 -48.833 33.5 -79.5
c0 -32.667 -10.5 -59.667 -31.5 -81s-48.167 -32 -81.5 -32c-32 0 -58.667 10.833 -80 32.5s-32 48.5 -32 80.5z" />
    <glyph glyph-name="Igrave" unicode="&#xcc;" horiz-adv-x="895" 
d="M88 -6v81c80 2.66699 132.5 16 157.5 40s37.5 77.667 37.5 161v832c0 75.333 -11.833 124.5 -35.5 147.5s-69.834 34.5 -138.501 34.5h-21v84c66.667 -2 130.167 -3.5 190.5 -4.5s117.166 -1.5 170.499 -1.5c56 0 114.167 0.5 174.5 1.5s122.166 2.5 185.499 4.5v-84h-23
c-62.667 0 -107 -13.5 -133 -40.5s-39 -74.167 -39 -141.5v-832c0 -76 13.333 -127.5 40 -154.5s78.334 -42.5 155.001 -46.5v-81c-82 2 -153.167 3.5 -213.5 4.5s-109.166 1.5 -146.499 1.5c-49.333 0 -104.166 -0.5 -164.499 -1.5s-125.833 -2.5 -196.5 -4.5zM621 1515
l-73.999 0.00195312l-301 183c-32.667 20.667 -54.834 38.167 -66.501 52.5s-17.5 30.166 -17.5 47.499c0 21.333 7.5 39.666 22.5 54.999s32.833 23 53.5 23c16 0 33.333 -5.33301 52 -16s37 -26 55 -46z" />
    <glyph glyph-name="Iacute" unicode="&#xcd;" horiz-adv-x="895" 
d="M88 -6v81c80 2.66699 132.5 16 157.5 40s37.5 77.667 37.5 161v832c0 75.333 -11.833 124.5 -35.5 147.5s-69.834 34.5 -138.501 34.5h-21v84c66.667 -2 130.167 -3.5 190.5 -4.5s117.166 -1.5 170.499 -1.5c56 0 114.167 0.5 174.5 1.5s122.166 2.5 185.499 4.5v-84h-23
c-62.667 0 -107 -13.5 -133 -40.5s-39 -74.167 -39 -141.5v-832c0 -76 13.333 -127.5 40 -154.5s78.334 -42.5 155.001 -46.5v-81c-82 2 -153.167 3.5 -213.5 4.5s-109.166 1.5 -146.499 1.5c-49.333 0 -104.166 -0.5 -164.499 -1.5s-125.833 -2.5 -196.5 -4.5zM269 1515
l276.002 298.998c17.333 19.333 35.666 34.5 54.999 45.5s37.333 16.5 54 16.5c20 0 37.333 -7.66699 52 -23s22 -33.666 22 -54.999c0 -17.333 -5.83301 -33.166 -17.5 -47.499s-33.834 -31.833 -66.501 -52.5l-299 -183h-76z" />
    <glyph glyph-name="Icircumflex" unicode="&#xce;" horiz-adv-x="895" 
d="M88 -6v81c80 2.66699 132.5 16 157.5 40s37.5 77.667 37.5 161v832c0 75.333 -11.833 124.5 -35.5 147.5s-69.834 34.5 -138.501 34.5h-21v84c66.667 -2 130.167 -3.5 190.5 -4.5s117.166 -1.5 170.499 -1.5c56 0 114.167 0.5 174.5 1.5s122.166 2.5 185.499 4.5v-84h-23
c-62.667 0 -107 -13.5 -133 -40.5s-39 -74.167 -39 -141.5v-832c0 -76 13.333 -127.5 40 -154.5s78.334 -42.5 155.001 -46.5v-81c-82 2 -153.167 3.5 -213.5 4.5s-109.166 1.5 -146.499 1.5c-49.333 0 -104.166 -0.5 -164.499 -1.5s-125.833 -2.5 -196.5 -4.5zM150 1515
l229 348h133l228 -348h-74l-221 195l-221 -195h-74z" />
    <glyph glyph-name="Idieresis" unicode="&#xcf;" horiz-adv-x="895" 
d="M88 -6v81c80 2.66699 132.5 16 157.5 40s37.5 77.667 37.5 161v832c0 75.333 -11.833 124.5 -35.5 147.5s-69.834 34.5 -138.501 34.5h-21v84c66.667 -2 130.167 -3.5 190.5 -4.5s117.166 -1.5 170.499 -1.5c56 0 114.167 0.5 174.5 1.5s122.166 2.5 185.499 4.5v-84h-23
c-62.667 0 -107 -13.5 -133 -40.5s-39 -74.167 -39 -141.5v-832c0 -76 13.333 -127.5 40 -154.5s78.334 -42.5 155.001 -46.5v-81c-82 2 -153.167 3.5 -213.5 4.5s-109.166 1.5 -146.499 1.5c-49.333 0 -104.166 -0.5 -164.499 -1.5s-125.833 -2.5 -196.5 -4.5zM140 1677
c0 30 11.167 56.333 33.5 79s48.5 34 78.5 34c30.667 0 57.167 -11.167 79.5 -33.5s33.5 -48.833 33.5 -79.5c0 -32.667 -10.5 -59.667 -31.5 -81s-48.167 -32 -81.5 -32c-32.667 0 -59.5 10.667 -80.5 32s-31.5 48.333 -31.5 81zM525 1677c0 30 11.167 56.333 33.5 79
s48.5 34 78.5 34c30.667 0 57.167 -11.167 79.5 -33.5s33.5 -48.833 33.5 -79.5c0 -32.667 -10.5 -59.667 -31.5 -81s-48.167 -32 -81.5 -32c-32 0 -58.667 10.833 -80 32.5s-32 48.5 -32 80.5z" />
    <glyph glyph-name="Eth" unicode="&#xd0;" horiz-adv-x="1581" 
d="M608 307c0 -76.667 14.6689 -130.668 44.002 -162.001s79 -47 149 -47c117.333 0 203.666 46.333 258.999 139s83 238.334 83 437.001c0 216 -35.833 371 -107.5 465s-188.834 141 -351.501 141c-28 0 -47.667 -3.83301 -59 -11.5s-17 -21.5 -17 -41.5v-473h289v-101
h-289v-346zM94.002 -6.00098l1.00098 86.001c75.333 1.33301 125.166 14 149.499 38s36.5 74 36.5 150v385h-281v101h281v344c0 82 -12.667 134.833 -38 158.5s-75 35.5 -149 35.5v82c27.333 -1.33301 57.5 -2.33301 90.5 -3s82.833 -1 149.5 -1
c38.667 0 95.5 0.666992 170.5 2s130.833 2 167.5 2c271.333 0 478 -61.833 620 -185.5s213 -304.167 213 -541.5c0 -105.333 -17.333 -199.5 -52 -282.5s-87 -155.5 -157 -217.5c-62 -54 -133.833 -92.667 -215.5 -116s-193.5 -35 -335.5 -35
c-39.333 0 -100.166 0.666992 -182.499 2s-144.833 2 -187.5 2c-34.667 0 -84.334 -0.833008 -149.001 -2.5s-108.667 -2.83398 -132 -3.50098z" />
    <glyph glyph-name="Ntilde" unicode="&#xd1;" horiz-adv-x="1688" 
d="M82 -8l-0.000976562 86.001c71.333 8 120.166 28.833 146.499 62.5s39.5 95.5 39.5 185.5v862l-24 31c-21.333 26 -44.666 44.5 -69.999 55.5s-60 17.5 -104 19.5v80c20 -2 43.333 -3.5 70 -4.5s70 -1.5 130 -1.5c58 0 103.833 0.5 137.5 1.5s65.834 2.5 96.501 4.5
l817 -934v613c0 88 -14.5 150 -43.5 186s-77.833 54.333 -146.5 55v80c49.333 -2 93.5 -3.5 132.5 -4.5s73.167 -1.5 102.5 -1.5c26 0 59.5 0.5 100.5 1.5s91.5 2.5 151.5 4.5v-79c-72 -5.33301 -121.333 -25 -148 -59s-40 -98.667 -40 -194v-1075h-115l-934 1092v-733
c0 -84.667 15 -146.834 45 -186.501s77.667 -60.167 143 -61.5v-84c-46 2 -92.333 3.5 -139 4.5s-102.667 1.5 -168 1.5c-36.667 -0 -69.5 -0.666992 -98.5 -2s-56.167 -3.33301 -81.5 -6zM1123 1833c-14.667 -75.333 -38.4971 -132.5 -71.4971 -171.5
s-74.167 -58.5 -123.5 -58.5c-8 0 -16.167 0.5 -24.5 1.5s-17.5 2.83301 -27.5 5.5l-106 26c-11.333 2.66699 -21.5 4.66699 -30.5 6s-16.5 2 -22.5 2c-28 0 -49.667 -6.66699 -65 -20s-27.666 -36.666 -36.999 -69.999h-58c15.333 78 39.166 136.167 71.499 174.5
s74.166 57.5 125.499 57.5c10.667 0 21.5 -0.833008 32.5 -2.5s21.167 -3.83398 30.5 -6.50098l108 -26c8.66699 -2 17.167 -3.5 25.5 -4.5s17.166 -1.5 26.499 -1.5c22.667 0 41.167 7.16699 55.5 21.5s25.166 36.5 32.499 66.5h58z" />
    <glyph glyph-name="Ograve" unicode="&#xd2;" horiz-adv-x="1706" 
d="M446 678c0 -201.333 35.333 -353.666 106 -456.999s174.667 -155 312 -155c136 0 236.333 50.167 301 150.5s97 256.166 97 467.499c0 203.333 -35.333 357.666 -106 462.999s-174.667 158 -312 158c-136.667 0 -237.167 -50.667 -301.5 -152
s-96.5 -259.666 -96.5 -474.999zM838 -35c-227.333 0 -411.166 66.498 -551.499 199.498s-210.5 306.167 -210.5 519.5s72 386.833 216 520.5s332 200.5 564 200.5c117.333 0 222.333 -17 315 -51s176 -86 250 -156c70.667 -67.333 123.5 -143.5 158.5 -228.5
s52.5 -178.833 52.5 -281.5c0 -105.333 -18.333 -201.166 -55 -287.499s-92 -163.166 -166 -230.499c-74.667 -68.667 -159.334 -120 -254.001 -154s-201 -51 -319 -51zM1026 1515l-73.999 0.00195312l-301 183c-32.667 20.667 -54.834 38.167 -66.501 52.5
s-17.5 30.166 -17.5 47.499c0 21.333 7.5 39.666 22.5 54.999s32.833 23 53.5 23c16 0 33.333 -5.33301 52 -16s37 -26 55 -46z" />
    <glyph glyph-name="Oacute" unicode="&#xd3;" horiz-adv-x="1706" 
d="M446 678c0 -201.333 35.333 -353.666 106 -456.999s174.667 -155 312 -155c136 0 236.333 50.167 301 150.5s97 256.166 97 467.499c0 203.333 -35.333 357.666 -106 462.999s-174.667 158 -312 158c-136.667 0 -237.167 -50.667 -301.5 -152
s-96.5 -259.666 -96.5 -474.999zM838 -35c-227.333 0 -411.166 66.498 -551.499 199.498s-210.5 306.167 -210.5 519.5s72 386.833 216 520.5s332 200.5 564 200.5c117.333 0 222.333 -17 315 -51s176 -86 250 -156c70.667 -67.333 123.5 -143.5 158.5 -228.5
s52.5 -178.833 52.5 -281.5c0 -105.333 -18.333 -201.166 -55 -287.499s-92 -163.166 -166 -230.499c-74.667 -68.667 -159.334 -120 -254.001 -154s-201 -51 -319 -51zM674 1515l276.002 298.998c17.333 19.333 35.666 34.5 54.999 45.5s37.333 16.5 54 16.5
c20 0 37.333 -7.66699 52 -23s22 -33.666 22 -54.999c0 -17.333 -5.83301 -33.166 -17.5 -47.499s-33.834 -31.833 -66.501 -52.5l-299 -183h-76z" />
    <glyph glyph-name="Ocircumflex" unicode="&#xd4;" horiz-adv-x="1706" 
d="M446 678c0 -201.333 35.333 -353.666 106 -456.999s174.667 -155 312 -155c136 0 236.333 50.167 301 150.5s97 256.166 97 467.499c0 203.333 -35.333 357.666 -106 462.999s-174.667 158 -312 158c-136.667 0 -237.167 -50.667 -301.5 -152
s-96.5 -259.666 -96.5 -474.999zM838 -35c-227.333 0 -411.166 66.498 -551.499 199.498s-210.5 306.167 -210.5 519.5s72 386.833 216 520.5s332 200.5 564 200.5c117.333 0 222.333 -17 315 -51s176 -86 250 -156c70.667 -67.333 123.5 -143.5 158.5 -228.5
s52.5 -178.833 52.5 -281.5c0 -105.333 -18.333 -201.166 -55 -287.499s-92 -163.166 -166 -230.499c-74.667 -68.667 -159.334 -120 -254.001 -154s-201 -51 -319 -51zM555 1515l229 348h133l228 -348h-74l-221 195l-221 -195h-74z" />
    <glyph glyph-name="Otilde" unicode="&#xd5;" horiz-adv-x="1706" 
d="M446 678c0 -201.333 35.333 -353.666 106 -456.999s174.667 -155 312 -155c136 0 236.333 50.167 301 150.5s97 256.166 97 467.499c0 203.333 -35.333 357.666 -106 462.999s-174.667 158 -312 158c-136.667 0 -237.167 -50.667 -301.5 -152
s-96.5 -259.666 -96.5 -474.999zM838 -35c-227.333 0 -411.166 66.498 -551.499 199.498s-210.5 306.167 -210.5 519.5s72 386.833 216 520.5s332 200.5 564 200.5c117.333 0 222.333 -17 315 -51s176 -86 250 -156c70.667 -67.333 123.5 -143.5 158.5 -228.5
s52.5 -178.833 52.5 -281.5c0 -105.333 -18.333 -201.166 -55 -287.499s-92 -163.166 -166 -230.499c-74.667 -68.667 -159.334 -120 -254.001 -154s-201 -51 -319 -51zM1133 1833c-14.667 -75.333 -38.4971 -132.5 -71.4971 -171.5s-74.167 -58.5 -123.5 -58.5
c-8 0 -16.167 0.5 -24.5 1.5s-17.5 2.83301 -27.5 5.5l-106 26c-11.333 2.66699 -21.5 4.66699 -30.5 6s-16.5 2 -22.5 2c-28 0 -49.667 -6.66699 -65 -20s-27.666 -36.666 -36.999 -69.999h-58c15.333 78 39.166 136.167 71.499 174.5s74.166 57.5 125.499 57.5
c10.667 0 21.5 -0.833008 32.5 -2.5s21.167 -3.83398 30.5 -6.50098l108 -26c8.66699 -2 17.167 -3.5 25.5 -4.5s17.166 -1.5 26.499 -1.5c22.667 0 41.167 7.16699 55.5 21.5s25.166 36.5 32.499 66.5h58z" />
    <glyph glyph-name="Odieresis" unicode="&#xd6;" horiz-adv-x="1706" 
d="M446 678c0 -201.333 35.333 -353.666 106 -456.999s174.667 -155 312 -155c136 0 236.333 50.167 301 150.5s97 256.166 97 467.499c0 203.333 -35.333 357.666 -106 462.999s-174.667 158 -312 158c-136.667 0 -237.167 -50.667 -301.5 -152
s-96.5 -259.666 -96.5 -474.999zM838 -35c-227.333 0 -411.166 66.498 -551.499 199.498s-210.5 306.167 -210.5 519.5s72 386.833 216 520.5s332 200.5 564 200.5c117.333 0 222.333 -17 315 -51s176 -86 250 -156c70.667 -67.333 123.5 -143.5 158.5 -228.5
s52.5 -178.833 52.5 -281.5c0 -105.333 -18.333 -201.166 -55 -287.499s-92 -163.166 -166 -230.499c-74.667 -68.667 -159.334 -120 -254.001 -154s-201 -51 -319 -51zM545 1677c0 30 11.167 56.333 33.5 79s48.5 34 78.5 34c30.667 0 57.167 -11.167 79.5 -33.5
s33.5 -48.833 33.5 -79.5c0 -32.667 -10.5 -59.667 -31.5 -81s-48.167 -32 -81.5 -32c-32.667 0 -59.5 10.667 -80.5 32s-31.5 48.333 -31.5 81zM930 1677c0 30 11.167 56.333 33.5 79s48.5 34 78.5 34c30.667 0 57.167 -11.167 79.5 -33.5s33.5 -48.833 33.5 -79.5
c0 -32.667 -10.5 -59.667 -31.5 -81s-48.167 -32 -81.5 -32c-32 0 -58.667 10.833 -80 32.5s-32 48.5 -32 80.5z" />
    <glyph glyph-name="multiply" unicode="&#xd7;" horiz-adv-x="1706" 
d="M416 1202l450 -450l451 450l141 -139l-450 -453l450 -450l-141 -140l-451 451l-450 -451l-140 140l451 450l-451 453z" />
    <glyph glyph-name="Oslash" unicode="&#xd8;" horiz-adv-x="1706" 
d="M571 201c31.333 -44.667 70.333 -78.332 117 -100.999s100 -34 160 -34c135.333 0 237.833 51.167 307.5 153.5s104.5 253.166 104.5 452.499c0 94 -7 178 -21 252s-33.667 132 -59 174zM516 299.002l604 887c-36 40.667 -77 71.334 -123 92.001s-97 31 -153 31
c-128 0 -227 -54.167 -297 -162.5s-105 -261.833 -105 -460.5c0 -84 6.16699 -157.833 18.5 -221.5s30.833 -118.834 55.5 -165.501zM180 -189.998l192.999 288.001c-94 62.667 -167 144.667 -219 246s-78 212.666 -78 333.999c0 100.667 19.333 196 58 286
s94.334 170 167.001 240c68.667 66.667 150.167 117.5 244.5 152.5s197.166 52.5 308.499 52.5c63.333 0 125.833 -6.66699 187.5 -20s122.834 -33.333 183.501 -60l155 221h115l-184 -268c104.667 -67.333 184.334 -151.333 239.001 -252s82 -214 82 -340
c0 -214 -74.667 -388 -224 -522s-345.666 -201 -588.999 -201c-56.667 0 -113.834 6.16699 -171.501 18.5s-119.834 31.5 -186.501 57.5l-160 -233h-121z" />
    <glyph glyph-name="Ugrave" unicode="&#xd9;" horiz-adv-x="1692" 
d="M254 555l-0.00195312 499.995c0 97.333 -12.667 160.333 -38 189s-76.666 45.334 -153.999 50.001v80c60.667 -2 120 -3.5 178 -4.5s113.333 -1.5 166 -1.5c64 0 126.5 0.666992 187.5 2s121.167 3.33301 180.5 6v-81c-80 -5.33301 -133.167 -22.166 -159.5 -50.499
s-39.5 -86.833 -39.5 -175.5v-532c0 -158.667 26.833 -270.5 80.5 -335.5s144.5 -97.5 272.5 -97.5c76 0 143 11.833 201 35.5s102.333 57.167 133 100.5c24.667 36 42.334 80 53.001 132s16 126 16 222v471c0 83.333 -13.5 141.333 -40.5 174s-76.833 52.334 -149.5 59.001
v76c38 -2 77.167 -3.5 117.5 -4.5s81.5 -1.5 123.5 -1.5c50.667 0 96.667 0.5 138 1.5s77.333 2.5 108 4.5v-80c-70.667 -8 -119.334 -28.333 -146.001 -61s-40 -88.667 -40 -168v-471c0 -109.333 -7 -195.666 -21 -258.999s-37 -118.333 -69 -165
c-46.667 -67.333 -112.5 -118.666 -197.5 -153.999s-185.167 -53 -300.5 -53c-110.667 0 -205.167 13.333 -283.5 40s-144.833 68 -199.5 124c-41.333 42 -71.166 96.5 -89.499 163.5s-27.5 155.167 -27.5 264.5zM1106 1515l-73.999 0.00195312l-301 183
c-32.667 20.667 -54.834 38.167 -66.501 52.5s-17.5 30.166 -17.5 47.499c0 21.333 7.5 39.666 22.5 54.999s32.833 23 53.5 23c16 0 33.333 -5.33301 52 -16s37 -26 55 -46z" />
    <glyph glyph-name="Uacute" unicode="&#xda;" horiz-adv-x="1692" 
d="M254 555l-0.00195312 499.995c0 97.333 -12.667 160.333 -38 189s-76.666 45.334 -153.999 50.001v80c60.667 -2 120 -3.5 178 -4.5s113.333 -1.5 166 -1.5c64 0 126.5 0.666992 187.5 2s121.167 3.33301 180.5 6v-81c-80 -5.33301 -133.167 -22.166 -159.5 -50.499
s-39.5 -86.833 -39.5 -175.5v-532c0 -158.667 26.833 -270.5 80.5 -335.5s144.5 -97.5 272.5 -97.5c76 0 143 11.833 201 35.5s102.333 57.167 133 100.5c24.667 36 42.334 80 53.001 132s16 126 16 222v471c0 83.333 -13.5 141.333 -40.5 174s-76.833 52.334 -149.5 59.001
v76c38 -2 77.167 -3.5 117.5 -4.5s81.5 -1.5 123.5 -1.5c50.667 0 96.667 0.5 138 1.5s77.333 2.5 108 4.5v-80c-70.667 -8 -119.334 -28.333 -146.001 -61s-40 -88.667 -40 -168v-471c0 -109.333 -7 -195.666 -21 -258.999s-37 -118.333 -69 -165
c-46.667 -67.333 -112.5 -118.666 -197.5 -153.999s-185.167 -53 -300.5 -53c-110.667 0 -205.167 13.333 -283.5 40s-144.833 68 -199.5 124c-41.333 42 -71.166 96.5 -89.499 163.5s-27.5 155.167 -27.5 264.5zM753.998 1515l276.002 298.998
c17.333 19.333 35.666 34.5 54.999 45.5s37.333 16.5 54 16.5c20 0 37.333 -7.66699 52 -23s22 -33.666 22 -54.999c0 -17.333 -5.83301 -33.166 -17.5 -47.499s-33.834 -31.833 -66.501 -52.5l-299 -183h-76z" />
    <glyph glyph-name="Ucircumflex" unicode="&#xdb;" horiz-adv-x="1692" 
d="M254 555l-0.00195312 499.995c0 97.333 -12.667 160.333 -38 189s-76.666 45.334 -153.999 50.001v80c60.667 -2 120 -3.5 178 -4.5s113.333 -1.5 166 -1.5c64 0 126.5 0.666992 187.5 2s121.167 3.33301 180.5 6v-81c-80 -5.33301 -133.167 -22.166 -159.5 -50.499
s-39.5 -86.833 -39.5 -175.5v-532c0 -158.667 26.833 -270.5 80.5 -335.5s144.5 -97.5 272.5 -97.5c76 0 143 11.833 201 35.5s102.333 57.167 133 100.5c24.667 36 42.334 80 53.001 132s16 126 16 222v471c0 83.333 -13.5 141.333 -40.5 174s-76.833 52.334 -149.5 59.001
v76c38 -2 77.167 -3.5 117.5 -4.5s81.5 -1.5 123.5 -1.5c50.667 0 96.667 0.5 138 1.5s77.333 2.5 108 4.5v-80c-70.667 -8 -119.334 -28.333 -146.001 -61s-40 -88.667 -40 -168v-471c0 -109.333 -7 -195.666 -21 -258.999s-37 -118.333 -69 -165
c-46.667 -67.333 -112.5 -118.666 -197.5 -153.999s-185.167 -53 -300.5 -53c-110.667 0 -205.167 13.333 -283.5 40s-144.833 68 -199.5 124c-41.333 42 -71.166 96.5 -89.499 163.5s-27.5 155.167 -27.5 264.5zM634.998 1515l229 348h133l228 -348h-74l-221 195l-221 -195
h-74z" />
    <glyph glyph-name="Udieresis" unicode="&#xdc;" horiz-adv-x="1692" 
d="M254 555l-0.00195312 499.995c0 97.333 -12.667 160.333 -38 189s-76.666 45.334 -153.999 50.001v80c60.667 -2 120 -3.5 178 -4.5s113.333 -1.5 166 -1.5c64 0 126.5 0.666992 187.5 2s121.167 3.33301 180.5 6v-81c-80 -5.33301 -133.167 -22.166 -159.5 -50.499
s-39.5 -86.833 -39.5 -175.5v-532c0 -158.667 26.833 -270.5 80.5 -335.5s144.5 -97.5 272.5 -97.5c76 0 143 11.833 201 35.5s102.333 57.167 133 100.5c24.667 36 42.334 80 53.001 132s16 126 16 222v471c0 83.333 -13.5 141.333 -40.5 174s-76.833 52.334 -149.5 59.001
v76c38 -2 77.167 -3.5 117.5 -4.5s81.5 -1.5 123.5 -1.5c50.667 0 96.667 0.5 138 1.5s77.333 2.5 108 4.5v-80c-70.667 -8 -119.334 -28.333 -146.001 -61s-40 -88.667 -40 -168v-471c0 -109.333 -7 -195.666 -21 -258.999s-37 -118.333 -69 -165
c-46.667 -67.333 -112.5 -118.666 -197.5 -153.999s-185.167 -53 -300.5 -53c-110.667 0 -205.167 13.333 -283.5 40s-144.833 68 -199.5 124c-41.333 42 -71.166 96.5 -89.499 163.5s-27.5 155.167 -27.5 264.5zM624.998 1677c0 30 11.167 56.333 33.5 79s48.5 34 78.5 34
c30.667 0 57.167 -11.167 79.5 -33.5s33.5 -48.833 33.5 -79.5c0 -32.667 -10.5 -59.667 -31.5 -81s-48.167 -32 -81.5 -32c-32.667 0 -59.5 10.667 -80.5 32s-31.5 48.333 -31.5 81zM1010 1677c0 30 11.167 56.333 33.5 79s48.5 34 78.5 34
c30.667 0 57.167 -11.167 79.5 -33.5s33.5 -48.833 33.5 -79.5c0 -32.667 -10.5 -59.667 -31.5 -81s-48.167 -32 -81.5 -32c-32 0 -58.667 10.833 -80 32.5s-32 48.5 -32 80.5z" />
    <glyph glyph-name="Yacute" unicode="&#xdd;" horiz-adv-x="1466" 
d="M369 -6l-0.00292969 84.001c80 1.33301 133.333 14 160 38s40 71.333 40 142v277l-325 589c-15.333 28.667 -30.5 54 -45.5 76s-27.833 38.333 -38.5 49c-12.667 12 -28.667 21.833 -48 29.5s-43 13.5 -71 17.5v78c60.667 -2 117.834 -3.5 171.501 -4.5
s105.167 -1.5 154.5 -1.5c57.333 0 114.833 0.5 172.5 1.5s115.167 2.5 172.5 4.5l1 -79c-54 -1.33301 -93.167 -8 -117.5 -20s-36.5 -30.667 -36.5 -56c0 -14.667 5.5 -35.334 16.5 -62.001s31.5 -68.334 61.5 -125.001l201 -366l202 333c28 46 48.333 84.667 61 116
s19 58.333 19 81c0 34 -10.667 58 -32 72s-60.333 22.333 -117 25v81c25.333 -2 52.833 -3.5 82.5 -4.5s74.5 -1.5 134.5 -1.5c31.333 0 87.333 1 168 3c14.667 0.666992 25.667 1 33 1c10 0 17.333 0.166992 22 0.5s9.33398 0.833008 14.001 1.5v-82
c-35.333 -5.33301 -65.166 -16.666 -89.499 -33.999s-46.833 -43.333 -67.5 -78l-377 -621v-293c0 -73.333 14.167 -123 42.5 -149s82.5 -39 162.5 -39l-1 -84c-52 2 -107.667 3.5 -167 4.5s-122.333 1.5 -189 1.5c-112 0 -192.5 -0.5 -241.5 -1.5s-91.833 -2.5 -128.5 -4.5
zM552.997 1515l276.002 298.998c17.333 19.333 35.666 34.5 54.999 45.5s37.333 16.5 54 16.5c20 0 37.333 -7.66699 52 -23s22 -33.666 22 -54.999c0 -17.333 -5.83301 -33.166 -17.5 -47.499s-33.834 -31.833 -66.501 -52.5l-299 -183h-76z" />
    <glyph glyph-name="Thorn" unicode="&#xde;" horiz-adv-x="1356" 
d="M84 -6l-0.00292969 83.999c71.333 5.33301 119.166 19.333 143.499 42s36.5 64 36.5 124v880c0 64.667 -11.5 107.667 -34.5 129s-71.5 34.333 -145.5 39v80c14.667 -1.33301 32.834 -2.33301 54.501 -3s60.167 -1 115.5 -1h162h162c54.667 0 92.834 0.333008 114.501 1
s39.834 1.66699 54.501 3v-80c-73.333 -4.66699 -121.333 -17 -144 -37s-34 -63.667 -34 -131l1 -53c16 0.666992 33.333 1.16699 52 1.5s43.334 0.5 74.001 0.5c203.333 0 354.5 -30.167 453.5 -90.5s148.5 -152.166 148.5 -275.499c0 -132 -49.667 -229.667 -149 -293
s-253 -95 -461 -95c-26.667 0 -47 0.166992 -61 0.5s-27 0.833008 -39 1.5v-67c0 -68.667 13.667 -115.167 41 -139.5s78.333 -36.5 153 -36.5h13l-1 -84c-61.333 2 -131.5 3.5 -210.5 4.5s-166.167 1.5 -261.5 1.5c-73.333 0 -125.5 -0.5 -156.5 -1.5
s-58.167 -2.5 -81.5 -4.5zM587.997 421.999c6 0 14.6689 -0.333008 26.002 -1s19.666 -1 24.999 -1c110.667 0 189.834 22.5 237.501 67.5s71.5 120.167 71.5 225.5c0 85.333 -21.333 150.333 -64 195s-105.334 67 -188.001 67c-42.667 0 -71.334 -3.83301 -86.001 -11.5
s-22 -22.167 -22 -43.5v-498z" />
    <glyph glyph-name="germandbls" unicode="&#xdf;" horiz-adv-x="1223" 
d="M35 -4l-0.00195312 68.999c48 2.66699 82.167 12.667 102.5 30s30.5 45 30.5 83v764c0 166.667 38.667 294 116 382s188.666 132 333.999 132c130.667 0 235.834 -29.167 315.501 -87.5s119.5 -134.166 119.5 -227.499c0 -77.333 -23.667 -140.333 -71 -189
s-116 -81.334 -206 -98.001v-14c121.333 -18 213.833 -62.667 277.5 -134s95.5 -166.666 95.5 -285.999c0 -134.667 -35.333 -242.834 -106 -324.501s-163.667 -122.5 -279 -122.5c-72 0 -130 17.667 -174 53s-66 81.333 -66 138c0 36 10.333 65.167 31 87.5
s47.334 33.5 80.001 33.5c32 0 58 -9.5 78 -28.5s30 -43.833 30 -74.5c0 -18.667 -7.16699 -37.667 -21.5 -57s-21.5 -31.666 -21.5 -36.999c0 -10.667 4.83301 -19.5 14.5 -26.5s22.167 -10.5 37.5 -10.5c39.333 0 67.5 25.5 84.5 76.5s25.5 136.833 25.5 257.5
c0 138 -9.83301 232.833 -29.5 284.5s-54.834 86.5 -105.501 104.5c-17.333 6 -48 9.33301 -92 10s-66 14.334 -66 41.001s21.333 42.667 64 48c16.667 2 29.667 4 39 6c36.667 7.33301 62.834 29.166 78.501 65.499s23.5 95.5 23.5 177.5c0 80 -13.667 140.667 -41 182
s-67.666 62 -120.999 62c-54 0 -94 -21.5 -120 -64.5s-39 -108.833 -39 -197.5l-1 -1108c-27.333 2 -55.333 3.5 -84 4.5s-58.334 1.5 -89.001 1.5c-38.667 0 -78.167 -0.5 -118.5 -1.5s-82.166 -2.5 -125.499 -4.5z" />
    <glyph glyph-name="agrave" unicode="&#xe0;" horiz-adv-x="1016" 
d="M582 276l0.000976562 225.999c-84.667 -26.667 -145.834 -58.667 -183.501 -96s-56.5 -84.666 -56.5 -141.999c0 -38 9 -68.333 27 -91s41.667 -34 71 -34c38.667 0 72 13.167 100 39.5s42 58.833 42 97.5zM584.001 101.999
c-50.667 -45.333 -99.3301 -78.499 -145.997 -99.499s-95 -31.5 -145 -31.5c-73.333 0 -131.333 20.833 -174 62.5s-64 98.167 -64 169.5c0 72 23.5 131 70.5 177s136.833 94 269.5 144l146 54c18 6 31 14.5 39 25.5s12 25.5 12 43.5v70
c0 41.333 -9.83301 72.833 -29.5 94.5s-48.167 32.5 -85.5 32.5c-28 0 -53 -7.16699 -75 -21.5s-39.333 -34.5 -52 -60.5c-3.33301 -7.33301 -7.66602 -17.666 -12.999 -30.999c-33.333 -79.333 -77.333 -119 -132 -119c-33.333 0 -60.833 10.833 -82.5 32.5
s-32.5 49.167 -32.5 82.5c0 60 34.333 107.833 103 143.5s162 53.5 280 53.5c129.333 0 226.5 -22.333 291.5 -67s97.5 -111.334 97.5 -200.001v-483c0 -20.667 2.83301 -35.334 8.5 -44.001s15.167 -13 28.5 -13c7.33301 0 16.666 2.5 27.999 7.5s24.666 12.5 39.999 22.5
l43 -55c-24.667 -35.333 -59.334 -64.333 -104.001 -87s-89.334 -34 -134.001 -34c-51.333 0 -92 10.5 -122 31.5s-52 54.167 -66 99.5zM680.005 1036l-73.999 0.00195312l-301 183c-32.667 20.667 -54.834 38.167 -66.501 52.5s-17.5 30.166 -17.5 47.499
c0 21.333 7.5 39.666 22.5 54.999s32.833 23 53.5 23c16 0 33.333 -5.33301 52 -16s37 -26 55 -46z" />
    <glyph glyph-name="aacute" unicode="&#xe1;" horiz-adv-x="1016" 
d="M582 276l0.000976562 225.999c-84.667 -26.667 -145.834 -58.667 -183.501 -96s-56.5 -84.666 -56.5 -141.999c0 -38 9 -68.333 27 -91s41.667 -34 71 -34c38.667 0 72 13.167 100 39.5s42 58.833 42 97.5zM584.001 101.999
c-50.667 -45.333 -99.3301 -78.499 -145.997 -99.499s-95 -31.5 -145 -31.5c-73.333 0 -131.333 20.833 -174 62.5s-64 98.167 -64 169.5c0 72 23.5 131 70.5 177s136.833 94 269.5 144l146 54c18 6 31 14.5 39 25.5s12 25.5 12 43.5v70
c0 41.333 -9.83301 72.833 -29.5 94.5s-48.167 32.5 -85.5 32.5c-28 0 -53 -7.16699 -75 -21.5s-39.333 -34.5 -52 -60.5c-3.33301 -7.33301 -7.66602 -17.666 -12.999 -30.999c-33.333 -79.333 -77.333 -119 -132 -119c-33.333 0 -60.833 10.833 -82.5 32.5
s-32.5 49.167 -32.5 82.5c0 60 34.333 107.833 103 143.5s162 53.5 280 53.5c129.333 0 226.5 -22.333 291.5 -67s97.5 -111.334 97.5 -200.001v-483c0 -20.667 2.83301 -35.334 8.5 -44.001s15.167 -13 28.5 -13c7.33301 0 16.666 2.5 27.999 7.5s24.666 12.5 39.999 22.5
l43 -55c-24.667 -35.333 -59.334 -64.333 -104.001 -87s-89.334 -34 -134.001 -34c-51.333 0 -92 10.5 -122 31.5s-52 54.167 -66 99.5zM328.005 1036l276.002 298.998c17.333 19.333 35.666 34.5 54.999 45.5s37.333 16.5 54 16.5c20 0 37.333 -7.66699 52 -23
s22 -33.666 22 -54.999c0 -17.333 -5.83301 -33.166 -17.5 -47.499s-33.834 -31.833 -66.501 -52.5l-299 -183h-76z" />
    <glyph glyph-name="acircumflex" unicode="&#xe2;" horiz-adv-x="1016" 
d="M582 276l0.000976562 225.999c-84.667 -26.667 -145.834 -58.667 -183.501 -96s-56.5 -84.666 -56.5 -141.999c0 -38 9 -68.333 27 -91s41.667 -34 71 -34c38.667 0 72 13.167 100 39.5s42 58.833 42 97.5zM584.001 101.999
c-50.667 -45.333 -99.3301 -78.499 -145.997 -99.499s-95 -31.5 -145 -31.5c-73.333 0 -131.333 20.833 -174 62.5s-64 98.167 -64 169.5c0 72 23.5 131 70.5 177s136.833 94 269.5 144l146 54c18 6 31 14.5 39 25.5s12 25.5 12 43.5v70
c0 41.333 -9.83301 72.833 -29.5 94.5s-48.167 32.5 -85.5 32.5c-28 0 -53 -7.16699 -75 -21.5s-39.333 -34.5 -52 -60.5c-3.33301 -7.33301 -7.66602 -17.666 -12.999 -30.999c-33.333 -79.333 -77.333 -119 -132 -119c-33.333 0 -60.833 10.833 -82.5 32.5
s-32.5 49.167 -32.5 82.5c0 60 34.333 107.833 103 143.5s162 53.5 280 53.5c129.333 0 226.5 -22.333 291.5 -67s97.5 -111.334 97.5 -200.001v-483c0 -20.667 2.83301 -35.334 8.5 -44.001s15.167 -13 28.5 -13c7.33301 0 16.666 2.5 27.999 7.5s24.666 12.5 39.999 22.5
l43 -55c-24.667 -35.333 -59.334 -64.333 -104.001 -87s-89.334 -34 -134.001 -34c-51.333 0 -92 10.5 -122 31.5s-52 54.167 -66 99.5zM209.005 1036l229 348h133l228 -348h-74l-221 195l-221 -195h-74z" />
    <glyph glyph-name="atilde" unicode="&#xe3;" horiz-adv-x="1016" 
d="M582 276l0.000976562 225.999c-84.667 -26.667 -145.834 -58.667 -183.501 -96s-56.5 -84.666 -56.5 -141.999c0 -38 9 -68.333 27 -91s41.667 -34 71 -34c38.667 0 72 13.167 100 39.5s42 58.833 42 97.5zM584.001 101.999
c-50.667 -45.333 -99.3301 -78.499 -145.997 -99.499s-95 -31.5 -145 -31.5c-73.333 0 -131.333 20.833 -174 62.5s-64 98.167 -64 169.5c0 72 23.5 131 70.5 177s136.833 94 269.5 144l146 54c18 6 31 14.5 39 25.5s12 25.5 12 43.5v70
c0 41.333 -9.83301 72.833 -29.5 94.5s-48.167 32.5 -85.5 32.5c-28 0 -53 -7.16699 -75 -21.5s-39.333 -34.5 -52 -60.5c-3.33301 -7.33301 -7.66602 -17.666 -12.999 -30.999c-33.333 -79.333 -77.333 -119 -132 -119c-33.333 0 -60.833 10.833 -82.5 32.5
s-32.5 49.167 -32.5 82.5c0 60 34.333 107.833 103 143.5s162 53.5 280 53.5c129.333 0 226.5 -22.333 291.5 -67s97.5 -111.334 97.5 -200.001v-483c0 -20.667 2.83301 -35.334 8.5 -44.001s15.167 -13 28.5 -13c7.33301 0 16.666 2.5 27.999 7.5s24.666 12.5 39.999 22.5
l43 -55c-24.667 -35.333 -59.334 -64.333 -104.001 -87s-89.334 -34 -134.001 -34c-51.333 0 -92 10.5 -122 31.5s-52 54.167 -66 99.5zM787.005 1354c-14.667 -75.333 -38.4971 -132.5 -71.4971 -171.5s-74.167 -58.5 -123.5 -58.5c-8 0 -16.167 0.5 -24.5 1.5
s-17.5 2.83301 -27.5 5.5l-106 26c-11.333 2.66699 -21.5 4.66699 -30.5 6s-16.5 2 -22.5 2c-28 0 -49.667 -6.66699 -65 -20s-27.666 -36.666 -36.999 -69.999h-58c15.333 78 39.166 136.167 71.499 174.5s74.166 57.5 125.499 57.5c10.667 0 21.5 -0.833008 32.5 -2.5
s21.167 -3.83398 30.5 -6.50098l108 -26c8.66699 -2 17.167 -3.5 25.5 -4.5s17.166 -1.5 26.499 -1.5c22.667 0 41.167 7.16699 55.5 21.5s25.166 36.5 32.499 66.5h58z" />
    <glyph glyph-name="adieresis" unicode="&#xe4;" horiz-adv-x="1016" 
d="M582 276l0.000976562 225.999c-84.667 -26.667 -145.834 -58.667 -183.501 -96s-56.5 -84.666 -56.5 -141.999c0 -38 9 -68.333 27 -91s41.667 -34 71 -34c38.667 0 72 13.167 100 39.5s42 58.833 42 97.5zM584.001 101.999
c-50.667 -45.333 -99.3301 -78.499 -145.997 -99.499s-95 -31.5 -145 -31.5c-73.333 0 -131.333 20.833 -174 62.5s-64 98.167 -64 169.5c0 72 23.5 131 70.5 177s136.833 94 269.5 144l146 54c18 6 31 14.5 39 25.5s12 25.5 12 43.5v70
c0 41.333 -9.83301 72.833 -29.5 94.5s-48.167 32.5 -85.5 32.5c-28 0 -53 -7.16699 -75 -21.5s-39.333 -34.5 -52 -60.5c-3.33301 -7.33301 -7.66602 -17.666 -12.999 -30.999c-33.333 -79.333 -77.333 -119 -132 -119c-33.333 0 -60.833 10.833 -82.5 32.5
s-32.5 49.167 -32.5 82.5c0 60 34.333 107.833 103 143.5s162 53.5 280 53.5c129.333 0 226.5 -22.333 291.5 -67s97.5 -111.334 97.5 -200.001v-483c0 -20.667 2.83301 -35.334 8.5 -44.001s15.167 -13 28.5 -13c7.33301 0 16.666 2.5 27.999 7.5s24.666 12.5 39.999 22.5
l43 -55c-24.667 -35.333 -59.334 -64.333 -104.001 -87s-89.334 -34 -134.001 -34c-51.333 0 -92 10.5 -122 31.5s-52 54.167 -66 99.5zM199.005 1198c0 30 11.167 56.333 33.5 79s48.5 34 78.5 34c30.667 0 57.167 -11.167 79.5 -33.5s33.5 -48.833 33.5 -79.5
c0 -32.667 -10.5 -59.667 -31.5 -81s-48.167 -32 -81.5 -32c-32.667 0 -59.5 10.667 -80.5 32s-31.5 48.333 -31.5 81zM584.005 1198c0 30 11.167 56.333 33.5 79s48.5 34 78.5 34c30.667 0 57.167 -11.167 79.5 -33.5s33.5 -48.833 33.5 -79.5
c0 -32.667 -10.5 -59.667 -31.5 -81s-48.167 -32 -81.5 -32c-32 0 -58.667 10.833 -80 32.5s-32 48.5 -32 80.5z" />
    <glyph glyph-name="aring" unicode="&#xe5;" horiz-adv-x="1016" 
d="M371 1239c0 -40 13.5 -73.833 40.5 -101.5s60.5 -41.5 100.5 -41.5s73.5 13.833 100.5 41.5s40.5 61.5 40.5 101.5s-13.5 73.5 -40.5 100.5s-60.5 40.5 -100.5 40.5s-73.5 -13.5 -100.5 -40.5s-40.5 -60.5 -40.5 -100.5zM264 1239c0 69.333 24 128 72 176
s106.667 72 176 72s128 -24 176 -72s72 -106.667 72 -176s-24 -128 -72 -176s-106.667 -72 -176 -72s-128 24 -176 72s-72 106.667 -72 176zM582 276l0.000976562 225.999c-84.667 -26.667 -145.834 -58.667 -183.501 -96s-56.5 -84.666 -56.5 -141.999
c0 -38 9 -68.333 27 -91s41.667 -34 71 -34c38.667 0 72 13.167 100 39.5s42 58.833 42 97.5zM584.001 101.999c-50.667 -45.333 -99.3301 -78.499 -145.997 -99.499s-95 -31.5 -145 -31.5c-73.333 0 -131.333 20.833 -174 62.5s-64 98.167 -64 169.5
c0 72 23.5 131 70.5 177s136.833 94 269.5 144l146 54c18 6 31 14.5 39 25.5s12 25.5 12 43.5v70c0 41.333 -9.83301 72.833 -29.5 94.5s-48.167 32.5 -85.5 32.5c-28 0 -53 -7.16699 -75 -21.5s-39.333 -34.5 -52 -60.5
c-3.33301 -7.33301 -7.66602 -17.666 -12.999 -30.999c-33.333 -79.333 -77.333 -119 -132 -119c-33.333 0 -60.833 10.833 -82.5 32.5s-32.5 49.167 -32.5 82.5c0 60 34.333 107.833 103 143.5s162 53.5 280 53.5c129.333 0 226.5 -22.333 291.5 -67
s97.5 -111.334 97.5 -200.001v-483c0 -20.667 2.83301 -35.334 8.5 -44.001s15.167 -13 28.5 -13c7.33301 0 16.666 2.5 27.999 7.5s24.666 12.5 39.999 22.5l43 -55c-24.667 -35.333 -59.334 -64.333 -104.001 -87s-89.334 -34 -134.001 -34c-51.333 0 -92 10.5 -122 31.5
s-52 54.167 -66 99.5z" />
    <glyph glyph-name="ae" unicode="&#xe6;" horiz-adv-x="1458" 
d="M831 584h330v8c0 82 -13.833 143.833 -41.5 185.5s-69.167 62.5 -124.5 62.5c-50 0 -88.5 -21.167 -115.5 -63.5s-43.167 -106.5 -48.5 -192.5zM565 494c-80 -25.333 -139.167 -56.333 -177.5 -93s-57.5 -81.667 -57.5 -135c0 -40.667 8.66699 -71.667 26 -93
s42.666 -32 75.999 -32c28 0 56.333 8.5 85 25.5s54.334 40.833 77.001 71.5c-10 36 -17.333 72.667 -22 110s-7 77 -7 119v27zM635 152c-57.333 -60 -116.001 -105.168 -176.001 -135.501s-120 -45.5 -180 -45.5c-68.667 0 -124.5 20.833 -167.5 62.5
s-64.5 95.5 -64.5 161.5c0 69.333 28 129.833 84 181.5s151 103.5 285 155.5c13.333 6 31.666 13 54.999 21c66.667 24.667 100 51.334 100 80.001v94c0 39.333 -9.5 68 -28.5 86s-49.5 27 -91.5 27c-30.667 0 -54.167 -6.5 -70.5 -19.5s-30.5 -36.5 -42.5 -70.5
c-20 -57.333 -40.167 -94.333 -60.5 -111s-47.833 -25 -82.5 -25c-35.333 0 -62.333 9.66699 -81 29s-28 47.333 -28 84c0 55.333 31.833 102 95.5 140s145.167 57 244.5 57c76.667 0 139.334 -8.5 188.001 -25.5s89.667 -44.167 123 -81.5
c33.333 35.333 73.833 62 121.5 80s102.167 27 163.5 27c121.333 0 216.166 -34.333 284.499 -103s102.5 -164 102.5 -286v-41h-580c0 -6 -0.333008 -14.333 -1 -25s-1 -19 -1 -25c0 -111.333 22 -197.166 66 -257.499s106 -90.5 186 -90.5
c44.667 0 87.334 11.167 128.001 33.5s80.667 56.166 120 101.499l66 -59c-47.333 -66 -104.166 -116 -170.499 -150s-141.5 -51 -225.5 -51c-75.333 0 -143 15 -203 45s-113 75.333 -159 136z" />
    <glyph glyph-name="ccedilla" unicode="&#xe7;" horiz-adv-x="1012" 
d="M868 236l66.0029 -63.998c-46.667 -66 -104.5 -116 -173.5 -150s-147.833 -51 -236.5 -51c-135.333 0 -244.833 42.5 -328.5 127.5s-125.5 196.167 -125.5 333.5c0 145.333 47.667 263.666 143 354.999s219 137 371 137c105.333 0 189 -18.667 251 -56s93 -87 93 -149
c0 -33.333 -10.167 -59.833 -30.5 -79.5s-47.833 -29.5 -82.5 -29.5c-26 0 -49.333 7.83301 -70 23.5s-37.667 38.167 -51 67.5l-12 28c-30.667 72.667 -72.334 109 -125.001 109c-56.667 0 -100.834 -32.333 -132.501 -97s-47.5 -155.334 -47.5 -272.001
c0 -122.667 20.667 -215.167 62 -277.5s102.666 -93.5 183.999 -93.5c46 0 89.5 11.5 130.5 34.5s79.167 57.5 114.5 103.5zM282.003 -378.998l39.002 89.999c40 -25.333 79.833 -44.666 119.5 -57.999s77.167 -20 112.5 -20c37.333 0 65 7.33301 83 22s27 37.667 27 69
c0 28 -9 49.333 -27 64s-45 22 -81 22c-10 -0.666992 -20 -1.5 -30 -2.5s-20.667 -2.16699 -32 -3.5v196h66v-115c7.33301 1.33301 15.166 2.33301 23.499 3s20.833 1 37.5 1c58.667 0 104.5 -14.5 137.5 -43.5s49.5 -69.5 49.5 -121.5c0 -56 -19.833 -99.833 -59.5 -131.5
s-95.167 -47.5 -166.5 -47.5c-39.333 0 -83.333 6.33301 -132 19s-104.334 31.667 -167.001 57z" />
    <glyph glyph-name="egrave" unicode="&#xe8;" horiz-adv-x="1028" 
d="M377 586h336.001v24c0 74.667 -13.333 131.667 -40 171s-65.334 59 -116.001 59c-53.333 0 -94.833 -20.833 -124.5 -62.5s-48.167 -105.5 -55.5 -191.5zM893.001 236l70.0029 -62c-47.333 -68 -104.833 -118.833 -172.5 -152.5s-146.834 -50.5 -237.501 -50.5
c-144 0 -261.667 43.833 -353 131.5s-137 200.167 -137 337.5c0 143.333 47.167 260.166 141.5 350.499s216.5 135.5 366.5 135.5c129.333 0 229.666 -36.833 300.999 -110.5s107 -176.834 107 -309.501v-17h-602c0 -4.66699 -0.333008 -11.667 -1 -21
s-1 -15.666 -1 -18.999c0 -113.333 23.167 -200.166 69.5 -260.499s113.166 -90.5 200.499 -90.5c27.333 0 53.5 3.66699 78.5 11s48.833 18 71.5 32c12.667 8.66699 27.167 21 43.5 37s34.5 35.333 54.5 58zM743.004 1036l-73.999 0.00195312l-301 183
c-32.667 20.667 -54.834 38.167 -66.501 52.5s-17.5 30.166 -17.5 47.499c0 21.333 7.5 39.666 22.5 54.999s32.833 23 53.5 23c16 0 33.333 -5.33301 52 -16s37 -26 55 -46z" />
    <glyph glyph-name="eacute" unicode="&#xe9;" horiz-adv-x="1028" 
d="M377 586h336.001v24c0 74.667 -13.333 131.667 -40 171s-65.334 59 -116.001 59c-53.333 0 -94.833 -20.833 -124.5 -62.5s-48.167 -105.5 -55.5 -191.5zM893.001 236l70.0029 -62c-47.333 -68 -104.833 -118.833 -172.5 -152.5s-146.834 -50.5 -237.501 -50.5
c-144 0 -261.667 43.833 -353 131.5s-137 200.167 -137 337.5c0 143.333 47.167 260.166 141.5 350.499s216.5 135.5 366.5 135.5c129.333 0 229.666 -36.833 300.999 -110.5s107 -176.834 107 -309.501v-17h-602c0 -4.66699 -0.333008 -11.667 -1 -21
s-1 -15.666 -1 -18.999c0 -113.333 23.167 -200.166 69.5 -260.499s113.166 -90.5 200.499 -90.5c27.333 0 53.5 3.66699 78.5 11s48.833 18 71.5 32c12.667 8.66699 27.167 21 43.5 37s34.5 35.333 54.5 58zM391.004 1036l276.002 298.998
c17.333 19.333 35.666 34.5 54.999 45.5s37.333 16.5 54 16.5c20 0 37.333 -7.66699 52 -23s22 -33.666 22 -54.999c0 -17.333 -5.83301 -33.166 -17.5 -47.499s-33.834 -31.833 -66.501 -52.5l-299 -183h-76z" />
    <glyph glyph-name="ecircumflex" unicode="&#xea;" horiz-adv-x="1028" 
d="M377 586h336.001v24c0 74.667 -13.333 131.667 -40 171s-65.334 59 -116.001 59c-53.333 0 -94.833 -20.833 -124.5 -62.5s-48.167 -105.5 -55.5 -191.5zM893.001 236l70.0029 -62c-47.333 -68 -104.833 -118.833 -172.5 -152.5s-146.834 -50.5 -237.501 -50.5
c-144 0 -261.667 43.833 -353 131.5s-137 200.167 -137 337.5c0 143.333 47.167 260.166 141.5 350.499s216.5 135.5 366.5 135.5c129.333 0 229.666 -36.833 300.999 -110.5s107 -176.834 107 -309.501v-17h-602c0 -4.66699 -0.333008 -11.667 -1 -21
s-1 -15.666 -1 -18.999c0 -113.333 23.167 -200.166 69.5 -260.499s113.166 -90.5 200.499 -90.5c27.333 0 53.5 3.66699 78.5 11s48.833 18 71.5 32c12.667 8.66699 27.167 21 43.5 37s34.5 35.333 54.5 58zM272.004 1036l229 348h133l228 -348h-74l-221 195l-221 -195h-74
z" />
    <glyph glyph-name="edieresis" unicode="&#xeb;" horiz-adv-x="1028" 
d="M377 586h336.001v24c0 74.667 -13.333 131.667 -40 171s-65.334 59 -116.001 59c-53.333 0 -94.833 -20.833 -124.5 -62.5s-48.167 -105.5 -55.5 -191.5zM893.001 236l70.0029 -62c-47.333 -68 -104.833 -118.833 -172.5 -152.5s-146.834 -50.5 -237.501 -50.5
c-144 0 -261.667 43.833 -353 131.5s-137 200.167 -137 337.5c0 143.333 47.167 260.166 141.5 350.499s216.5 135.5 366.5 135.5c129.333 0 229.666 -36.833 300.999 -110.5s107 -176.834 107 -309.501v-17h-602c0 -4.66699 -0.333008 -11.667 -1 -21
s-1 -15.666 -1 -18.999c0 -113.333 23.167 -200.166 69.5 -260.499s113.166 -90.5 200.499 -90.5c27.333 0 53.5 3.66699 78.5 11s48.833 18 71.5 32c12.667 8.66699 27.167 21 43.5 37s34.5 35.333 54.5 58zM262.004 1198c0 30 11.167 56.333 33.5 79s48.5 34 78.5 34
c30.667 0 57.167 -11.167 79.5 -33.5s33.5 -48.833 33.5 -79.5c0 -32.667 -10.5 -59.667 -31.5 -81s-48.167 -32 -81.5 -32c-32.667 0 -59.5 10.667 -80.5 32s-31.5 48.333 -31.5 81zM647.004 1198c0 30 11.167 56.333 33.5 79s48.5 34 78.5 34
c30.667 0 57.167 -11.167 79.5 -33.5s33.5 -48.833 33.5 -79.5c0 -32.667 -10.5 -59.667 -31.5 -81s-48.167 -32 -81.5 -32c-32 0 -58.667 10.833 -80 32.5s-32 48.5 -32 80.5z" />
    <glyph glyph-name="igrave" unicode="&#xec;" horiz-adv-x="670" 
d="M64 -6l0.000976562 78c53.333 2.66699 88.166 10.667 104.499 24s24.5 41.333 24.5 84v484c0 48 -8.16699 79.833 -24.5 95.5s-51.166 24.5 -104.499 26.5l-1 72c87.333 9.33301 163.666 20 228.999 32s119 25.333 161 40h30v-750c0 -42.667 8 -70.667 24 -84
s51 -21.333 105 -24v-78c-66.667 2 -121 3.5 -163 4.5s-73 1.5 -93 1.5c-52 0 -102.5 -0.5 -151.5 -1.5s-95.833 -2.5 -140.5 -4.5zM508.001 1036l-73.999 0.00195312l-301 183c-32.667 20.667 -54.834 38.167 -66.501 52.5s-17.5 30.166 -17.5 47.499
c0 21.333 7.5 39.666 22.5 54.999s32.833 23 53.5 23c16 0 33.333 -5.33301 52 -16s37 -26 55 -46z" />
    <glyph glyph-name="iacute" unicode="&#xed;" horiz-adv-x="670" 
d="M64 -6l0.000976562 78c53.333 2.66699 88.166 10.667 104.499 24s24.5 41.333 24.5 84v484c0 48 -8.16699 79.833 -24.5 95.5s-51.166 24.5 -104.499 26.5l-1 72c87.333 9.33301 163.666 20 228.999 32s119 25.333 161 40h30v-750c0 -42.667 8 -70.667 24 -84
s51 -21.333 105 -24v-78c-66.667 2 -121 3.5 -163 4.5s-73 1.5 -93 1.5c-52 0 -102.5 -0.5 -151.5 -1.5s-95.833 -2.5 -140.5 -4.5zM156.001 1036l276.002 298.998c17.333 19.333 35.666 34.5 54.999 45.5s37.333 16.5 54 16.5c20 0 37.333 -7.66699 52 -23
s22 -33.666 22 -54.999c0 -17.333 -5.83301 -33.166 -17.5 -47.499s-33.834 -31.833 -66.501 -52.5l-299 -183h-76z" />
    <glyph glyph-name="icircumflex" unicode="&#xee;" horiz-adv-x="670" 
d="M64 -6l0.000976562 78c53.333 2.66699 88.166 10.667 104.499 24s24.5 41.333 24.5 84v484c0 48 -8.16699 79.833 -24.5 95.5s-51.166 24.5 -104.499 26.5l-1 72c87.333 9.33301 163.666 20 228.999 32s119 25.333 161 40h30v-750c0 -42.667 8 -70.667 24 -84
s51 -21.333 105 -24v-78c-66.667 2 -121 3.5 -163 4.5s-73 1.5 -93 1.5c-52 0 -102.5 -0.5 -151.5 -1.5s-95.833 -2.5 -140.5 -4.5zM37.001 1036l229 348h133l228 -348h-74l-221 195l-221 -195h-74z" />
    <glyph glyph-name="idieresis" unicode="&#xef;" horiz-adv-x="670" 
d="M64 -6l0.000976562 78c53.333 2.66699 88.166 10.667 104.499 24s24.5 41.333 24.5 84v484c0 48 -8.16699 79.833 -24.5 95.5s-51.166 24.5 -104.499 26.5l-1 72c87.333 9.33301 163.666 20 228.999 32s119 25.333 161 40h30v-750c0 -42.667 8 -70.667 24 -84
s51 -21.333 105 -24v-78c-66.667 2 -121 3.5 -163 4.5s-73 1.5 -93 1.5c-52 0 -102.5 -0.5 -151.5 -1.5s-95.833 -2.5 -140.5 -4.5zM27.001 1198c0 30 11.167 56.333 33.5 79s48.5 34 78.5 34c30.667 0 57.167 -11.167 79.5 -33.5s33.5 -48.833 33.5 -79.5
c0 -32.667 -10.5 -59.667 -31.5 -81s-48.167 -32 -81.5 -32c-32.667 0 -59.5 10.667 -80.5 32s-31.5 48.333 -31.5 81zM412.001 1198c0 30 11.167 56.333 33.5 79s48.5 34 78.5 34c30.667 0 57.167 -11.167 79.5 -33.5s33.5 -48.833 33.5 -79.5
c0 -32.667 -10.5 -59.667 -31.5 -81s-48.167 -32 -81.5 -32c-32 0 -58.667 10.833 -80 32.5s-32 48.5 -32 80.5z" />
    <glyph glyph-name="eth" unicode="&#xf0;" horiz-adv-x="1137" 
d="M639 820c-8.66699 32.667 -22.334 65.499 -41.001 98.499s-42.667 66.833 -72 101.5l-323 -156l-31 72l299 145c-27.333 34.667 -57.166 68.167 -89.499 100.5s-68.166 64.5 -107.499 96.5l48 51c45.333 -22 92.666 -47.833 141.999 -77.5
s100.666 -63.167 153.999 -100.5l308 145l37 -67l-271 -129c110 -88 191.833 -186 245.5 -294s80.5 -228 80.5 -360c0 -148.667 -41.167 -265 -123.5 -349s-196.166 -126 -341.499 -126c-132.667 0 -241 40.333 -325 121s-126 185.334 -126 314.001
c0 116.667 43.167 216.334 129.5 299.001s190.166 124 311.499 124c12 0 25.833 -0.833008 41.5 -2.5s33.834 -3.83398 54.501 -6.50098zM381 392.999c0 -128 13.668 -217.332 41.001 -267.999s73.666 -76 138.999 -76c64 0 110 28.167 138 84.5s42 149.833 42 280.5
c0 117.333 -14.5 202.666 -43.5 255.999s-75.833 80 -140.5 80c-59.333 0 -103.5 -29.5 -132.5 -88.5s-43.5 -148.5 -43.5 -268.5z" />
    <glyph glyph-name="ntilde" unicode="&#xf1;" horiz-adv-x="1233" 
d="M56 -6l-1.00195 72.9971c54 5.33301 88.667 14.333 104 27s23 42.667 23 90v457c0 54.667 -8.33301 90.834 -25 108.501s-50.667 26.5 -102 26.5v76c57.333 4 114.833 12 172.5 24s116.167 28 175.5 48h35l13 -181c46.667 60.667 98 106 154 136s117 45 183 45
c94 0 165 -27.5 213 -82.5s72 -136.167 72 -243.5v-414c0 -49.333 7.33301 -80.166 22 -92.499s47.667 -20.166 99 -23.499v-74c-47.333 2 -93.166 3.5 -137.499 4.5s-87.166 1.5 -128.499 1.5c-36 0 -75.333 -0.5 -118 -1.5s-88.667 -2.5 -138 -4.5v74
c46.667 0 77.667 7.5 93 22.5s23 46.167 23 93.5v414c0 58.667 -10.167 102.667 -30.5 132s-50.833 44 -91.5 44c-60 0 -108.167 -23.667 -144.5 -71s-54.5 -110.333 -54.5 -189v-319c0 -50 8.5 -83.5 25.5 -100.5s48.833 -26.167 95.5 -27.5l-1 -73
c-60.667 2 -114.5 3.5 -161.5 4.5s-87.833 1.5 -122.5 1.5c-38.667 0 -78.5 -0.5 -119.5 -1.5s-83.5 -2.5 -127.5 -4.5zM894.998 1354c-14.667 -75.333 -38.4971 -132.5 -71.4971 -171.5s-74.167 -58.5 -123.5 -58.5c-8 0 -16.167 0.5 -24.5 1.5s-17.5 2.83301 -27.5 5.5
l-106 26c-11.333 2.66699 -21.5 4.66699 -30.5 6s-16.5 2 -22.5 2c-28 0 -49.667 -6.66699 -65 -20s-27.666 -36.666 -36.999 -69.999h-58c15.333 78 39.166 136.167 71.499 174.5s74.166 57.5 125.499 57.5c10.667 0 21.5 -0.833008 32.5 -2.5
s21.167 -3.83398 30.5 -6.50098l108 -26c8.66699 -2 17.167 -3.5 25.5 -4.5s17.166 -1.5 26.499 -1.5c22.667 0 41.167 7.16699 55.5 21.5s25.166 36.5 32.499 66.5h58z" />
    <glyph glyph-name="ograve" unicode="&#xf2;" horiz-adv-x="1120" 
d="M360 440c0 -141.333 15.5 -240.5 46.5 -297.5s83.167 -85.5 156.5 -85.5c70.667 0 121.5 31.333 152.5 94s46.5 166.667 46.5 312c0 128 -16 222.5 -48 283.5s-81.667 91.5 -149 91.5c-70.667 0 -122.5 -31.667 -155.5 -95s-49.5 -164.333 -49.5 -303zM51 444
c0 140.667 48.334 255.833 145.001 345.5s221.667 134.5 375 134.5c146 0 265.5 -43.5 358.5 -130.5s139.5 -197.833 139.5 -332.5c0 -146.667 -47.333 -265 -142 -355s-219.334 -135 -374.001 -135c-146 0 -266.167 44.5 -360.5 133.5s-141.5 202.167 -141.5 339.5z
M733.001 1036l-73.999 0.00195312l-301 183c-32.667 20.667 -54.834 38.167 -66.501 52.5s-17.5 30.166 -17.5 47.499c0 21.333 7.5 39.666 22.5 54.999s32.833 23 53.5 23c16 0 33.333 -5.33301 52 -16s37 -26 55 -46z" />
    <glyph glyph-name="oacute" unicode="&#xf3;" horiz-adv-x="1120" 
d="M360 440c0 -141.333 15.5 -240.5 46.5 -297.5s83.167 -85.5 156.5 -85.5c70.667 0 121.5 31.333 152.5 94s46.5 166.667 46.5 312c0 128 -16 222.5 -48 283.5s-81.667 91.5 -149 91.5c-70.667 0 -122.5 -31.667 -155.5 -95s-49.5 -164.333 -49.5 -303zM51 444
c0 140.667 48.334 255.833 145.001 345.5s221.667 134.5 375 134.5c146 0 265.5 -43.5 358.5 -130.5s139.5 -197.833 139.5 -332.5c0 -146.667 -47.333 -265 -142 -355s-219.334 -135 -374.001 -135c-146 0 -266.167 44.5 -360.5 133.5s-141.5 202.167 -141.5 339.5z
M381.001 1036l276.002 298.998c17.333 19.333 35.666 34.5 54.999 45.5s37.333 16.5 54 16.5c20 0 37.333 -7.66699 52 -23s22 -33.666 22 -54.999c0 -17.333 -5.83301 -33.166 -17.5 -47.499s-33.834 -31.833 -66.501 -52.5l-299 -183h-76z" />
    <glyph glyph-name="ocircumflex" unicode="&#xf4;" horiz-adv-x="1120" 
d="M360 440c0 -141.333 15.5 -240.5 46.5 -297.5s83.167 -85.5 156.5 -85.5c70.667 0 121.5 31.333 152.5 94s46.5 166.667 46.5 312c0 128 -16 222.5 -48 283.5s-81.667 91.5 -149 91.5c-70.667 0 -122.5 -31.667 -155.5 -95s-49.5 -164.333 -49.5 -303zM51 444
c0 140.667 48.334 255.833 145.001 345.5s221.667 134.5 375 134.5c146 0 265.5 -43.5 358.5 -130.5s139.5 -197.833 139.5 -332.5c0 -146.667 -47.333 -265 -142 -355s-219.334 -135 -374.001 -135c-146 0 -266.167 44.5 -360.5 133.5s-141.5 202.167 -141.5 339.5z
M262.001 1036l229 348h133l228 -348h-74l-221 195l-221 -195h-74z" />
    <glyph glyph-name="otilde" unicode="&#xf5;" horiz-adv-x="1120" 
d="M360 440c0 -141.333 15.5 -240.5 46.5 -297.5s83.167 -85.5 156.5 -85.5c70.667 0 121.5 31.333 152.5 94s46.5 166.667 46.5 312c0 128 -16 222.5 -48 283.5s-81.667 91.5 -149 91.5c-70.667 0 -122.5 -31.667 -155.5 -95s-49.5 -164.333 -49.5 -303zM51 444
c0 140.667 48.334 255.833 145.001 345.5s221.667 134.5 375 134.5c146 0 265.5 -43.5 358.5 -130.5s139.5 -197.833 139.5 -332.5c0 -146.667 -47.333 -265 -142 -355s-219.334 -135 -374.001 -135c-146 0 -266.167 44.5 -360.5 133.5s-141.5 202.167 -141.5 339.5z
M840.001 1354c-14.667 -75.333 -38.4971 -132.5 -71.4971 -171.5s-74.167 -58.5 -123.5 -58.5c-8 0 -16.167 0.5 -24.5 1.5s-17.5 2.83301 -27.5 5.5l-106 26c-11.333 2.66699 -21.5 4.66699 -30.5 6s-16.5 2 -22.5 2c-28 0 -49.667 -6.66699 -65 -20
s-27.666 -36.666 -36.999 -69.999h-58c15.333 78 39.166 136.167 71.499 174.5s74.166 57.5 125.499 57.5c10.667 0 21.5 -0.833008 32.5 -2.5s21.167 -3.83398 30.5 -6.50098l108 -26c8.66699 -2 17.167 -3.5 25.5 -4.5s17.166 -1.5 26.499 -1.5
c22.667 0 41.167 7.16699 55.5 21.5s25.166 36.5 32.499 66.5h58z" />
    <glyph glyph-name="odieresis" unicode="&#xf6;" horiz-adv-x="1120" 
d="M360 440c0 -141.333 15.5 -240.5 46.5 -297.5s83.167 -85.5 156.5 -85.5c70.667 0 121.5 31.333 152.5 94s46.5 166.667 46.5 312c0 128 -16 222.5 -48 283.5s-81.667 91.5 -149 91.5c-70.667 0 -122.5 -31.667 -155.5 -95s-49.5 -164.333 -49.5 -303zM51 444
c0 140.667 48.334 255.833 145.001 345.5s221.667 134.5 375 134.5c146 0 265.5 -43.5 358.5 -130.5s139.5 -197.833 139.5 -332.5c0 -146.667 -47.333 -265 -142 -355s-219.334 -135 -374.001 -135c-146 0 -266.167 44.5 -360.5 133.5s-141.5 202.167 -141.5 339.5z
M252.001 1198c0 30 11.167 56.333 33.5 79s48.5 34 78.5 34c30.667 0 57.167 -11.167 79.5 -33.5s33.5 -48.833 33.5 -79.5c0 -32.667 -10.5 -59.667 -31.5 -81s-48.167 -32 -81.5 -32c-32.667 0 -59.5 10.667 -80.5 32s-31.5 48.333 -31.5 81zM637.001 1198
c0 30 11.167 56.333 33.5 79s48.5 34 78.5 34c30.667 0 57.167 -11.167 79.5 -33.5s33.5 -48.833 33.5 -79.5c0 -32.667 -10.5 -59.667 -31.5 -81s-48.167 -32 -81.5 -32c-32 0 -58.667 10.833 -80 32.5s-32 48.5 -32 80.5z" />
    <glyph glyph-name="divide" unicode="&#xf7;" horiz-adv-x="1706" 
d="M854 369c41.333 0 77 -15 107 -45s45 -65.667 45 -107c0 -40.667 -15 -75.667 -45 -105s-65.667 -44 -107 -44c-42 0 -77.833 14.333 -107.5 43s-44.5 64 -44.5 106s14.833 77.833 44.5 107.5s65.5 44.5 107.5 44.5zM254 711h1198v-199h-1198v199zM854 1155
c41.333 0 77 -14.833 107 -44.5s45 -65.167 45 -106.5c0 -42 -14.833 -77.833 -44.5 -107.5s-65.5 -44.5 -107.5 -44.5s-77.833 14.833 -107.5 44.5s-44.5 65.5 -44.5 107.5s14.833 77.667 44.5 107s65.5 44 107.5 44z" />
    <glyph glyph-name="oslash" unicode="&#xf8;" horiz-adv-x="1120" 
d="M430 131c12.667 -24 31 -42.667 55 -56s51.333 -20 82 -20c76 0 130.5 30.833 163.5 92.5s49.5 165.5 49.5 311.5c0 46 -1.5 85.167 -4.5 117.5s-7.5 61.5 -13.5 87.5zM387 233l330 534.998c-16.667 24.667 -36 42.834 -58 54.501s-47.667 17.5 -77 17.5
c-73.333 0 -127.166 -32.667 -161.499 -98s-51.5 -168 -51.5 -308c0 -46 1.66699 -87.167 5 -123.5s7.66602 -62.166 12.999 -77.499zM119 -211.002l155.003 264c-67.333 43.333 -119.333 99.5 -156 168.5s-55 146.167 -55 231.5c0 132.667 48.833 245 146.5 337
s217.5 138 359.5 138c42 0 81.167 -3 117.5 -9s71.166 -15.333 104.499 -28l122 201h99l-142 -238c72 -53.333 125.833 -113.333 161.5 -180s53.5 -139.667 53.5 -219c0 -137.333 -48.333 -252.333 -145 -345s-218.334 -139 -365.001 -139
c-34.667 0 -70.334 3.16699 -107.001 9.5s-74 15.5 -112 27.5l-133 -219h-104z" />
    <glyph glyph-name="ugrave" unicode="&#xf9;" horiz-adv-x="1237" 
d="M172 262l-0.00292969 403.999c0 70.667 -8.16699 115.334 -24.5 134.001s-48.5 29 -96.5 31v70h49c21.333 0 51 -0.333008 89 -1s65 -1 81 -1c33.333 2.66699 79 5 137 7c21.333 0.666992 36.666 1 45.999 1v-622c0 -54.667 9.5 -95 28.5 -121s48.167 -39 87.5 -39
c68.667 0 119.334 26.5 152.001 79.5s49 135.167 49 246.5v227c0 63.333 -8.33301 104.5 -25 123.5s-50 29.167 -100 30.5v69c42.667 1.33301 109.334 2.33301 200.001 3s160 1.66699 208 3v-696c0 -32.667 6.83301 -54.834 20.5 -66.501s40.167 -17.5 79.5 -17.5h16h9v-76
c-59.333 -5.33301 -118.166 -13.666 -176.499 -24.999s-117.166 -25.333 -176.499 -42h-30l-17 170c-41.333 -58 -90.5 -102.667 -147.5 -134s-117.5 -47 -181.5 -47c-94.667 0 -164.5 23.667 -209.5 71s-67.5 120 -67.5 218zM789.997 1036l-73.999 0.00195312l-301 183
c-32.667 20.667 -54.834 38.167 -66.501 52.5s-17.5 30.166 -17.5 47.499c0 21.333 7.5 39.666 22.5 54.999s32.833 23 53.5 23c16 0 33.333 -5.33301 52 -16s37 -26 55 -46z" />
    <glyph glyph-name="uacute" unicode="&#xfa;" horiz-adv-x="1237" 
d="M172 262l-0.00292969 403.999c0 70.667 -8.16699 115.334 -24.5 134.001s-48.5 29 -96.5 31v70h49c21.333 0 51 -0.333008 89 -1s65 -1 81 -1c33.333 2.66699 79 5 137 7c21.333 0.666992 36.666 1 45.999 1v-622c0 -54.667 9.5 -95 28.5 -121s48.167 -39 87.5 -39
c68.667 0 119.334 26.5 152.001 79.5s49 135.167 49 246.5v227c0 63.333 -8.33301 104.5 -25 123.5s-50 29.167 -100 30.5v69c42.667 1.33301 109.334 2.33301 200.001 3s160 1.66699 208 3v-696c0 -32.667 6.83301 -54.834 20.5 -66.501s40.167 -17.5 79.5 -17.5h16h9v-76
c-59.333 -5.33301 -118.166 -13.666 -176.499 -24.999s-117.166 -25.333 -176.499 -42h-30l-17 170c-41.333 -58 -90.5 -102.667 -147.5 -134s-117.5 -47 -181.5 -47c-94.667 0 -164.5 23.667 -209.5 71s-67.5 120 -67.5 218zM437.997 1036l276.002 298.998
c17.333 19.333 35.666 34.5 54.999 45.5s37.333 16.5 54 16.5c20 0 37.333 -7.66699 52 -23s22 -33.666 22 -54.999c0 -17.333 -5.83301 -33.166 -17.5 -47.499s-33.834 -31.833 -66.501 -52.5l-299 -183h-76z" />
    <glyph glyph-name="ucircumflex" unicode="&#xfb;" horiz-adv-x="1237" 
d="M172 262l-0.00292969 403.999c0 70.667 -8.16699 115.334 -24.5 134.001s-48.5 29 -96.5 31v70h49c21.333 0 51 -0.333008 89 -1s65 -1 81 -1c33.333 2.66699 79 5 137 7c21.333 0.666992 36.666 1 45.999 1v-622c0 -54.667 9.5 -95 28.5 -121s48.167 -39 87.5 -39
c68.667 0 119.334 26.5 152.001 79.5s49 135.167 49 246.5v227c0 63.333 -8.33301 104.5 -25 123.5s-50 29.167 -100 30.5v69c42.667 1.33301 109.334 2.33301 200.001 3s160 1.66699 208 3v-696c0 -32.667 6.83301 -54.834 20.5 -66.501s40.167 -17.5 79.5 -17.5h16h9v-76
c-59.333 -5.33301 -118.166 -13.666 -176.499 -24.999s-117.166 -25.333 -176.499 -42h-30l-17 170c-41.333 -58 -90.5 -102.667 -147.5 -134s-117.5 -47 -181.5 -47c-94.667 0 -164.5 23.667 -209.5 71s-67.5 120 -67.5 218zM318.997 1036l229 348h133l228 -348h-74
l-221 195l-221 -195h-74z" />
    <glyph glyph-name="udieresis" unicode="&#xfc;" horiz-adv-x="1237" 
d="M172 262l-0.00292969 403.999c0 70.667 -8.16699 115.334 -24.5 134.001s-48.5 29 -96.5 31v70h49c21.333 0 51 -0.333008 89 -1s65 -1 81 -1c33.333 2.66699 79 5 137 7c21.333 0.666992 36.666 1 45.999 1v-622c0 -54.667 9.5 -95 28.5 -121s48.167 -39 87.5 -39
c68.667 0 119.334 26.5 152.001 79.5s49 135.167 49 246.5v227c0 63.333 -8.33301 104.5 -25 123.5s-50 29.167 -100 30.5v69c42.667 1.33301 109.334 2.33301 200.001 3s160 1.66699 208 3v-696c0 -32.667 6.83301 -54.834 20.5 -66.501s40.167 -17.5 79.5 -17.5h16h9v-76
c-59.333 -5.33301 -118.166 -13.666 -176.499 -24.999s-117.166 -25.333 -176.499 -42h-30l-17 170c-41.333 -58 -90.5 -102.667 -147.5 -134s-117.5 -47 -181.5 -47c-94.667 0 -164.5 23.667 -209.5 71s-67.5 120 -67.5 218zM308.997 1198c0 30 11.167 56.333 33.5 79
s48.5 34 78.5 34c30.667 0 57.167 -11.167 79.5 -33.5s33.5 -48.833 33.5 -79.5c0 -32.667 -10.5 -59.667 -31.5 -81s-48.167 -32 -81.5 -32c-32.667 0 -59.5 10.667 -80.5 32s-31.5 48.333 -31.5 81zM693.997 1198c0 30 11.167 56.333 33.5 79s48.5 34 78.5 34
c30.667 0 57.167 -11.167 79.5 -33.5s33.5 -48.833 33.5 -79.5c0 -32.667 -10.5 -59.667 -31.5 -81s-48.167 -32 -81.5 -32c-32 0 -58.667 10.833 -80 32.5s-32 48.5 -32 80.5z" />
    <glyph glyph-name="yacute" unicode="&#xfd;" horiz-adv-x="1116" 
d="M502 -8l-307 707.999c-2 4 -4.33301 9 -7 15c-33.333 78 -77 117.667 -131 119l1 73c36.667 -2 79.167 -3.5 127.5 -4.5s102.5 -1.5 162.5 -1.5c40 0 79.833 0.5 119.5 1.5s78.167 2.5 115.5 4.5l1 -73c-43.333 0 -72.333 -4 -87 -12s-22 -22 -22 -42
c0 -8.66699 1.5 -19.167 4.5 -31.5s7.16699 -24.833 12.5 -37.5l157 -404l121 268c16 36 28.833 70.833 38.5 104.5s14.5 59.167 14.5 76.5c0 28.667 -8.16699 48.834 -24.5 60.501s-45.5 17.5 -87.5 17.5v73c34.667 -0.666992 72.334 -1.83398 113.001 -3.50098
s64.334 -2.5 71.001 -2.5c7.33301 0 25.333 0.5 54 1.5s68.667 2.5 120 4.5v-73c-58 -2.66699 -119.333 -78.667 -184 -228l-47 -108l-332 -725c-62.667 -136.667 -114.5 -228.167 -155.5 -274.5s-85.5 -69.5 -133.5 -69.5c-36.667 0 -66.334 10.333 -89.001 31
s-34 48.334 -34 83.001c0 44 19.167 79.667 57.5 107s88.166 41 149.499 41c18 0 36.667 10 56 30s38.333 48.667 57 86zM379 1036l276.002 298.998c17.333 19.333 35.666 34.5 54.999 45.5s37.333 16.5 54 16.5c20 0 37.333 -7.66699 52 -23s22 -33.666 22 -54.999
c0 -17.333 -5.83301 -33.166 -17.5 -47.499s-33.834 -31.833 -66.501 -52.5l-299 -183h-76z" />
    <glyph glyph-name="thorn" unicode="&#xfe;" horiz-adv-x="1249" 
d="M463 88v-431.999c0 -63.333 9.83301 -104.5 29.5 -123.5s62.5 -30.5 128.5 -34.5l-1 -71c-66.667 3.33301 -123.834 5.83301 -171.501 7.5s-89.834 2.5 -126.501 2.5c-26 0 -59.667 -0.666992 -101 -2s-105.333 -4 -192 -8v71c63.333 5.33301 104.333 16.833 123 34.5
s28 53.5 28 107.5v1587c0 24.667 -9 42.5 -27 53.5s-51.333 18.5 -100 22.5v73c68 4 136.5 12.833 205.5 26.5s137.167 31.5 204.5 53.5l-2 -688c46 55.333 92.833 95.5 140.5 120.5s100.5 37.5 158.5 37.5c120.667 0 220.834 -45.333 300.501 -136
s119.5 -205.334 119.5 -344.001c0 -138 -40.5 -252 -121.5 -342s-183.167 -135 -306.5 -135c-52.667 0 -102.667 9.66699 -150 29s-93.666 49.333 -138.999 90zM463 319.001c0 -70.667 15.835 -124.5 47.502 -161.5s77.834 -55.5 138.501 -55.5
c77.333 0 134.166 28.333 170.499 85s54.5 144.667 54.5 264c0 105.333 -17.833 185.833 -53.5 241.5s-87.834 83.5 -156.501 83.5c-60.667 0 -109.334 -22.5 -146.001 -67.5s-55 -105.167 -55 -180.5v-209z" />
    <glyph glyph-name="ydieresis" unicode="&#xff;" horiz-adv-x="1116" 
d="M502 -8l-307 707.999c-2 4 -4.33301 9 -7 15c-33.333 78 -77 117.667 -131 119l1 73c36.667 -2 79.167 -3.5 127.5 -4.5s102.5 -1.5 162.5 -1.5c40 0 79.833 0.5 119.5 1.5s78.167 2.5 115.5 4.5l1 -73c-43.333 0 -72.333 -4 -87 -12s-22 -22 -22 -42
c0 -8.66699 1.5 -19.167 4.5 -31.5s7.16699 -24.833 12.5 -37.5l157 -404l121 268c16 36 28.833 70.833 38.5 104.5s14.5 59.167 14.5 76.5c0 28.667 -8.16699 48.834 -24.5 60.501s-45.5 17.5 -87.5 17.5v73c34.667 -0.666992 72.334 -1.83398 113.001 -3.50098
s64.334 -2.5 71.001 -2.5c7.33301 0 25.333 0.5 54 1.5s68.667 2.5 120 4.5v-73c-58 -2.66699 -119.333 -78.667 -184 -228l-47 -108l-332 -725c-62.667 -136.667 -114.5 -228.167 -155.5 -274.5s-85.5 -69.5 -133.5 -69.5c-36.667 0 -66.334 10.333 -89.001 31
s-34 48.334 -34 83.001c0 44 19.167 79.667 57.5 107s88.166 41 149.499 41c18 0 36.667 10 56 30s38.333 48.667 57 86zM250 1198c0 30 11.167 56.333 33.5 79s48.5 34 78.5 34c30.667 0 57.167 -11.167 79.5 -33.5s33.5 -48.833 33.5 -79.5
c0 -32.667 -10.5 -59.667 -31.5 -81s-48.167 -32 -81.5 -32c-32.667 0 -59.5 10.667 -80.5 32s-31.5 48.333 -31.5 81zM635 1198c0 30 11.167 56.333 33.5 79s48.5 34 78.5 34c30.667 0 57.167 -11.167 79.5 -33.5s33.5 -48.833 33.5 -79.5
c0 -32.667 -10.5 -59.667 -31.5 -81s-48.167 -32 -81.5 -32c-32 0 -58.667 10.833 -80 32.5s-32 48.5 -32 80.5z" />
    <glyph glyph-name="Cacute" unicode="&#x106;" horiz-adv-x="1456" 
d="M1264 479l86.002 -0.000976562v-479h-84l-45 117c-70 -52.667 -141.5 -91.5 -214.5 -116.5s-150.5 -37.5 -232.5 -37.5c-207.333 0 -375.833 64.5 -505.5 193.5s-194.5 296.5 -194.5 502.5c0 88 11.333 169.667 34 245s57 144 103 206
c71.333 96 156.166 168.5 254.499 217.5s208.166 73.5 329.499 73.5c78 0 150.167 -10.667 216.5 -32s127.833 -53.666 184.5 -96.999l35 114h90l12 -442h-86c-30 112 -78.833 199 -146.5 261s-147.167 93 -238.5 93c-128 0 -230.333 -55.167 -307 -165.5
s-115 -259.833 -115 -448.5s37 -335.5 111 -440.5s176.333 -157.5 307 -157.5c104 0 190.5 33.5 259.5 100.5s117.833 164.5 146.5 292.5zM613.002 1515l276.002 298.998c17.333 19.333 35.666 34.5 54.999 45.5s37.333 16.5 54 16.5c20 0 37.333 -7.66699 52 -23
s22 -33.666 22 -54.999c0 -17.333 -5.83301 -33.166 -17.5 -47.499s-33.834 -31.833 -66.501 -52.5l-299 -183h-76z" />
    <glyph glyph-name="cacute" unicode="&#x107;" horiz-adv-x="1012" 
d="M868 236l66.0029 -63.998c-46.667 -66 -104.5 -116 -173.5 -150s-147.833 -51 -236.5 -51c-135.333 0 -244.833 42.5 -328.5 127.5s-125.5 196.167 -125.5 333.5c0 145.333 47.667 263.666 143 354.999s219 137 371 137c105.333 0 189 -18.667 251 -56s93 -87 93 -149
c0 -33.333 -10.167 -59.833 -30.5 -79.5s-47.833 -29.5 -82.5 -29.5c-26 0 -49.333 7.83301 -70 23.5s-37.667 38.167 -51 67.5l-12 28c-30.667 72.667 -72.334 109 -125.001 109c-56.667 0 -100.834 -32.333 -132.501 -97s-47.5 -155.334 -47.5 -272.001
c0 -122.667 20.667 -215.167 62 -277.5s102.666 -93.5 183.999 -93.5c46 0 89.5 11.5 130.5 34.5s79.167 57.5 114.5 103.5zM377.003 1036l276.002 298.998c17.333 19.333 35.666 34.5 54.999 45.5s37.333 16.5 54 16.5c20 0 37.333 -7.66699 52 -23s22 -33.666 22 -54.999
c0 -17.333 -5.83301 -33.166 -17.5 -47.499s-33.834 -31.833 -66.501 -52.5l-299 -183h-76z" />
    <glyph glyph-name="Ccaron" unicode="&#x10c;" horiz-adv-x="1456" 
d="M1264 479l86.002 -0.000976562v-479h-84l-45 117c-70 -52.667 -141.5 -91.5 -214.5 -116.5s-150.5 -37.5 -232.5 -37.5c-207.333 0 -375.833 64.5 -505.5 193.5s-194.5 296.5 -194.5 502.5c0 88 11.333 169.667 34 245s57 144 103 206
c71.333 96 156.166 168.5 254.499 217.5s208.166 73.5 329.499 73.5c78 0 150.167 -10.667 216.5 -32s127.833 -53.666 184.5 -96.999l35 114h90l12 -442h-86c-30 112 -78.833 199 -146.5 261s-147.167 93 -238.5 93c-128 0 -230.333 -55.167 -307 -165.5
s-115 -259.833 -115 -448.5s37 -335.5 111 -440.5s176.333 -157.5 307 -157.5c104 0 190.5 33.5 259.5 100.5s117.833 164.5 146.5 292.5zM494.002 1863h74l221 -194l221 194h74l-228 -348h-133z" />
    <glyph glyph-name="ccaron" unicode="&#x10d;" horiz-adv-x="1012" 
d="M868 236l66.0029 -63.998c-46.667 -66 -104.5 -116 -173.5 -150s-147.833 -51 -236.5 -51c-135.333 0 -244.833 42.5 -328.5 127.5s-125.5 196.167 -125.5 333.5c0 145.333 47.667 263.666 143 354.999s219 137 371 137c105.333 0 189 -18.667 251 -56s93 -87 93 -149
c0 -33.333 -10.167 -59.833 -30.5 -79.5s-47.833 -29.5 -82.5 -29.5c-26 0 -49.333 7.83301 -70 23.5s-37.667 38.167 -51 67.5l-12 28c-30.667 72.667 -72.334 109 -125.001 109c-56.667 0 -100.834 -32.333 -132.501 -97s-47.5 -155.334 -47.5 -272.001
c0 -122.667 20.667 -215.167 62 -277.5s102.666 -93.5 183.999 -93.5c46 0 89.5 11.5 130.5 34.5s79.167 57.5 114.5 103.5zM258.003 1384h74l221 -194l221 194h74l-228 -348h-133z" />
    <glyph glyph-name="dcroat" unicode="&#x111;" horiz-adv-x="1260" 
d="M786 584c0 66 -17.002 117.333 -51.002 154s-81.667 55 -143 55c-69.333 0 -122.166 -29.5 -158.499 -88.5s-54.5 -144.167 -54.5 -255.5c0 -108.667 16.333 -190.5 49 -245.5s81 -82.5 145 -82.5c68.667 0 121.334 21 158.001 63s55 102.333 55 181v219zM818.998 -27
l-21.9971 165.999c-36.667 -56.667 -79.834 -98.5 -129.501 -125.5s-109.167 -40.5 -178.5 -40.5c-128.667 0 -231 43 -307 129s-114 201.667 -114 347c0 136.667 41.333 250.334 124 341.001s186 136 310 136c59.333 0 113.833 -10.333 163.5 -31s92.167 -50.667 127.5 -90
v264h-320v80h320v70c0 41.333 -9.16699 68.833 -27.5 82.5s-61.833 22.167 -130.5 25.5v74c94.667 4 180.5 11 257.5 21s137.167 21.333 180.5 34v-307h187v-80h-187v-858c0 -30 10 -51.333 30 -64s55.667 -20 107 -22v-72c-64.667 -6.66699 -129.334 -16.667 -194.001 -30
s-130.334 -30 -197.001 -50z" />
    <glyph glyph-name="Gbreve" unicode="&#x11e;" horiz-adv-x="1593" 
d="M940 588l643.002 -0.000976562v-80c-57.333 0 -96.5 -8.66699 -117.5 -26s-31.5 -49 -31.5 -95v-278h-15c-32.667 0 -67.334 -3.5 -104.001 -10.5s-73.334 -17.167 -110.001 -30.5l-67 -25c-136.667 -53.333 -256 -80 -358 -80c-208 0 -377.333 63.5 -508 190.5
s-196 292.167 -196 495.5c0 86 10.5 166.333 31.5 241s52.833 143.334 95.5 206.001c68.667 101.333 151 177.833 247 229.5s204 77.5 324 77.5c82 0 158 -10.833 228 -32.5s136.667 -55.167 200 -100.5l33 110h94l12 -430h-90c-26 112 -73.167 197.333 -141.5 256
s-154.166 88 -257.499 88c-130 0 -231.5 -56 -304.5 -168s-109.5 -268.333 -109.5 -469c0 -180 35.167 -321.833 105.5 -425.5s166.166 -155.5 287.499 -155.5c87.333 0 155 18.5 203 55.5s72 88.833 72 155.5v92c0 44 -11.667 76.5 -35 97.5s-59.333 31.5 -108 31.5h-23v80
zM492.002 1829h65c12 -47.333 36.5 -81.333 73.5 -102s91.167 -31 162.5 -31s125.333 10.333 162 31s60.334 54.667 71.001 102h66c-14.667 -92 -47.334 -161.5 -98.001 -208.5s-117.667 -70.5 -201 -70.5c-84.667 0 -152.5 23.5 -203.5 70.5s-83.5 116.5 -97.5 208.5z" />
    <glyph glyph-name="gbreve" unicode="&#x11f;" horiz-adv-x="1122" 
d="M385 602c0 -90.667 9.16699 -154 27.5 -190s49.5 -54 93.5 -54c47.333 0 80.333 15.833 99 47.5s28 95.834 28 192.501c0 93.333 -9.33301 158.666 -28 195.999s-49.667 56 -93 56c-44 0 -76.167 -19.667 -96.5 -59s-30.5 -102.333 -30.5 -189zM307 309
c-63.333 22.667 -112.161 58.998 -146.494 108.998s-51.5 109.333 -51.5 178c0 96.667 37 175.5 111 236.5s171.333 91.5 292 91.5c51.333 0 99.166 -5.83301 143.499 -17.5s85.166 -29.167 122.499 -52.5c36.667 31.333 71 54.166 103 68.499s64 21.5 96 21.5
c43.333 0 76 -10.5 98 -31.5s33 -52.167 33 -93.5c0 -22 -8.33301 -40.5 -25 -55.5s-38.334 -22.5 -65.001 -22.5c-18.667 0 -41.5 12.667 -68.5 38s-49.167 38 -66.5 38c-6 0 -12.5 -1.5 -19.5 -4.5s-16.167 -8.16699 -27.5 -15.5c24 -28 42.167 -58.667 54.5 -92
s18.5 -69.666 18.5 -108.999c0 -103.333 -33 -180.166 -99 -230.499s-175 -80.833 -327 -91.5c-60 -4.66699 -101.833 -13.667 -125.5 -27s-35.5 -33.666 -35.5 -60.999c0 -46.667 54.667 -70.667 164 -72c23.333 -0.666992 41 -1 53 -1
c178 -4.66699 302.667 -31.334 374 -80.001s107 -128.667 107 -240c0 -115.333 -44 -203.833 -132 -265.5s-215.333 -92.5 -382 -92.5c-134.667 0 -240.334 21.5 -317.001 64.5s-115 101.833 -115 176.5c0 42.667 12.833 78.667 38.5 108s56.5 44 92.5 44
c24.667 0 46.5 -5.66699 65.5 -17s32.5 -27 40.5 -47c-18.667 -4.66699 -33.834 -14.667 -45.501 -30s-17.5 -32.333 -17.5 -51c0 -50 24 -89.167 72 -117.5s114.667 -42.5 200 -42.5c90.667 0 164.5 18.5 221.5 55.5s85.5 84.5 85.5 142.5c0 46.667 -18 81.667 -54 105
s-90.333 35 -163 35c-108.667 0 -187.334 2.33301 -236.001 7s-88.667 12.334 -120 23.001c-42.667 15.333 -76.167 40.333 -100.5 75s-36.5 74.667 -36.5 120c0 54 16.5 100.333 49.5 139s79.833 66.667 140.5 84zM256.005 1350h65c12 -47.333 36.5 -81.333 73.5 -102
s91.167 -31 162.5 -31s125.333 10.333 162 31s60.334 54.667 71.001 102h66c-14.667 -92 -47.334 -161.5 -98.001 -208.5s-117.667 -70.5 -201 -70.5c-84.667 0 -152.5 23.5 -203.5 70.5s-83.5 116.5 -97.5 208.5z" />
    <glyph glyph-name="Idotaccent" unicode="&#x130;" horiz-adv-x="895" 
d="M88 -6v81c80 2.66699 132.5 16 157.5 40s37.5 77.667 37.5 161v832c0 75.333 -11.833 124.5 -35.5 147.5s-69.834 34.5 -138.501 34.5h-21v84c66.667 -2 130.167 -3.5 190.5 -4.5s117.166 -1.5 170.499 -1.5c56 0 114.167 0.5 174.5 1.5s122.166 2.5 185.499 4.5v-84h-23
c-62.667 0 -107 -13.5 -133 -40.5s-39 -74.167 -39 -141.5v-832c0 -76 13.333 -127.5 40 -154.5s78.334 -42.5 155.001 -46.5v-81c-82 2 -153.167 3.5 -213.5 4.5s-109.166 1.5 -146.499 1.5c-49.333 0 -104.166 -0.5 -164.499 -1.5s-125.833 -2.5 -196.5 -4.5zM332 1677
c0 32 11.668 60.166 35.001 84.499s50.666 36.5 81.999 36.5s59 -12.167 83 -36.5s36 -52.5 36 -84.5c0 -33.333 -11.333 -61.166 -34 -83.499s-51 -33.5 -85 -33.5s-62 11 -84 33s-33 50 -33 84z" />
    <glyph glyph-name="dotlessi" unicode="&#x131;" horiz-adv-x="670" 
d="M64 -6l0.000976562 78c53.333 2.66699 88.166 10.667 104.499 24s24.5 41.333 24.5 84v484c0 48 -8.16699 79.833 -24.5 95.5s-51.166 24.5 -104.499 26.5l-1 72c87.333 9.33301 163.666 20 228.999 32s119 25.333 161 40h30v-750c0 -42.667 8 -70.667 24 -84
s51 -21.333 105 -24v-78c-66.667 2 -121 3.5 -163 4.5s-73 1.5 -93 1.5c-52 0 -102.5 -0.5 -151.5 -1.5s-95.833 -2.5 -140.5 -4.5z" />
    <glyph glyph-name="Lslash" unicode="&#x141;" horiz-adv-x="1364" 
d="M78 -6v84h16c66.667 0 112.334 14.333 137.001 43s37 82.667 37 162v256l-268 -189v115l268 188v477c0 61.333 -13 103.666 -39 126.999s-73 35 -141 35h-10v82c66 -2 129 -3.5 189 -4.5s115.667 -1.5 167 -1.5c38 0 86.667 0.5 146 1.5s128.666 2.5 207.999 4.5v-82h-12
c-71.333 0 -119.5 -11.667 -144.5 -35s-37.5 -69.666 -37.5 -138.999v-258l309 217v-121l-309 -213v-374c0 -107.333 17.833 -179.333 53.5 -216s103.167 -55 202.5 -55c115.333 0 205 24.833 269 74.5s106 127.5 126 233.5h84l-8 -412c-101.333 2 -204.5 3.5 -309.5 4.5
s-211.5 1.5 -319.5 1.5c-72 0 -150.5 -0.5 -235.5 -1.5s-176.167 -2.5 -273.5 -4.5c-6 0 -14.833 -0.333008 -26.5 -1s-20.167 -1 -25.5 -1c-6 0 -14.833 0.333008 -26.5 1s-20.5 1 -26.5 1z" />
    <glyph glyph-name="lslash" unicode="&#x142;" horiz-adv-x="692" 
d="M68 -6v75.999c56.667 3.33301 93.334 11.333 110.001 24s25 41.334 25 86.001v410l-203 -144v95l203 141v545c0 24.667 -9.16699 42.5 -27.5 53.5s-51.5 18.5 -99.5 22.5v73c67.333 4 135.666 12.667 204.999 26s138 31.333 206 54v-584l205 144v-94l-205 -146v-596
c0 -39.333 9.83301 -67 29.5 -83s55.5 -25 107.5 -27v-76c-22 2 -46.5 3.5 -73.5 4.5s-68.5 1.5 -124.5 1.5h-109h-90c-45.333 0 -79 -0.5 -101 -1.5s-41.333 -2.5 -58 -4.5z" />
    <glyph glyph-name="OE" unicode="&#x152;" horiz-adv-x="2177" 
d="M1100 438v566c0 102 -19.667 174.167 -59 216.5s-105.666 63.5 -198.999 63.5c-136 0 -236.667 -48 -302 -144s-98 -244.667 -98 -446c0 -207.333 32.667 -361.5 98 -462.5s164.666 -151.5 297.999 -151.5c96 0 163.667 26.167 203 78.5s59 145.5 59 279.5zM2122 -6
l-934 5.99609c-56 0 -129.5 -3.33301 -220.5 -10s-154.167 -10 -189.5 -10c-208.667 0 -377.834 64 -507.501 192s-194.5 294.667 -194.5 500c0 110.667 20 211.167 60 301.5s100.333 170.5 181 240.5c66.667 58.667 141.667 101.667 225 129s181.333 41 294 41
c29.333 0 80.833 -1.66699 154.5 -5s131.834 -5 174.501 -5h854v-356h-73c-16.667 86.667 -56.167 151.334 -118.5 194.001s-149.166 64 -260.499 64h-23c-60 0 -96.5 -3.66699 -109.5 -11s-19.5 -23.333 -19.5 -48v-457c5.33301 0 12.166 -0.333008 20.499 -1
s14.5 -1 18.5 -1c74.667 0 131.167 18.333 169.5 55s63.166 96 74.499 178h83c-1.33301 -62 -2.16602 -113.167 -2.49902 -153.5s-0.5 -79.166 -0.5 -116.499c0 -23.333 0.666992 -76.666 2 -159.999c0.666992 -53.333 1.33398 -96.333 2.00098 -129h-88
c-3.33301 80.667 -24.833 139.5 -64.5 176.5s-101.5 55.5 -185.5 55.5h-29v-402c0 -55.333 19.667 -97.166 59 -125.499s97.666 -42.5 174.999 -42.5c118 0 208.5 25 271.5 75s102.833 128 119.5 234h82v-409z" />
    <glyph glyph-name="oe" unicode="&#x153;" horiz-adv-x="1692" 
d="M1051 584h327.002v28c0 73.333 -13.833 129.333 -41.5 168s-67.5 58 -119.5 58c-46.667 0 -84.834 -22.667 -114.501 -68s-46.834 -107.333 -51.501 -186zM569.002 838c-66 0 -115.499 -34 -148.499 -102s-49.5 -170.667 -49.5 -308c0 -123.333 15.833 -216 47.5 -278
s79.167 -93 142.5 -93c69.333 0 120.166 31.833 152.499 95.5s48.5 164.5 48.5 302.5c0 134.667 -15.333 232.167 -46 292.5s-79.667 90.5 -147 90.5zM899.003 96c-54.667 -42 -111.998 -73.332 -171.998 -93.999s-124 -31 -192 -31c-136.667 0 -248.667 45.667 -336 137
s-131 208.333 -131 351c0 134.667 45.833 246.167 137.5 334.5s209.5 132.5 353.5 132.5c67.333 0 128.666 -10.167 183.999 -30.5s108 -51.833 158 -94.5c49.333 42.667 100 74.167 152 94.5s109.333 30.5 172 30.5c132.667 0 235.334 -36.833 308.001 -110.5
s109 -177.5 109 -311.5v-10h-598v-25c0 -122 22.833 -214.667 68.5 -278s112.5 -95 200.5 -95c45.333 0 87.166 10.667 125.499 32s77.5 55.666 117.5 102.999l62 -61c-46.667 -67.333 -102.167 -117.333 -166.5 -150s-139.166 -49 -224.499 -49
c-64.667 0 -124.334 10.5 -179.001 31.5s-104.334 52.167 -149.001 93.5z" />
    <glyph glyph-name="Scedilla" unicode="&#x15e;" horiz-adv-x="1124" 
d="M82 0c2 33.333 3.5 66.3379 4.5 99.0049s1.5 66 1.5 100c0 44.667 -0.5 86.5 -1.5 125.5s-2.5 75.5 -4.5 109.5h94c28.667 -122 73.167 -213.5 133.5 -274.5s136.166 -91.5 227.499 -91.5c76.667 0 137.334 19.833 182.001 59.5s67 93.5 67 161.5
c0 53.333 -16.667 98 -50 134s-110.666 81.333 -231.999 136c-150.667 67.333 -255 135.166 -313 203.499s-87 153.5 -87 255.5c0 116 38 209.5 114 280.5s176 106.5 300 106.5c71.333 0 133.666 -8.5 186.999 -25.5s102.333 -44.167 147 -81.5l25 88h96
c0 -66.667 0.666992 -131.834 2 -195.501s3.33301 -126.834 6 -189.501h-92c-20 95.333 -60.667 170.166 -122 224.499s-135.333 81.5 -222 81.5c-60.667 0 -109.667 -17.167 -147 -51.5s-56 -78.833 -56 -133.5c0 -76 75 -148.333 225 -217c4 -2 7 -3.33301 9 -4
c201.333 -92 332.5 -172.333 393.5 -241s91.5 -154.334 91.5 -257.001c0 -131.333 -44.667 -236.833 -134 -316.5s-208 -119.5 -356 -119.5c-80.667 0 -150.167 10.667 -208.5 32s-111.5 55 -159.5 101l-25 -100h-96zM319 -378.995l39.002 89.999
c40 -25.333 79.833 -44.666 119.5 -57.999s77.167 -20 112.5 -20c37.333 0 65 7.33301 83 22s27 37.667 27 69c0 28 -9 49.333 -27 64s-45 22 -81 22c-10 -0.666992 -20 -1.5 -30 -2.5s-20.667 -2.16699 -32 -3.5v196h66v-115c7.33301 1.33301 15.166 2.33301 23.499 3
s20.833 1 37.5 1c58.667 0 104.5 -14.5 137.5 -43.5s49.5 -69.5 49.5 -121.5c0 -56 -19.833 -99.833 -59.5 -131.5s-95.167 -47.5 -166.5 -47.5c-39.333 0 -83.333 6.33301 -132 19s-104.334 31.667 -167.001 57z" />
    <glyph glyph-name="scedilla" unicode="&#x15f;" horiz-adv-x="897" 
d="M98 -16c1.33301 20.667 2.33398 42.1689 3.00098 64.502s1 51.166 1 86.499c0 36.667 -0.333008 66.167 -1 88.5s-1.66699 44.166 -3 65.499h74c20.667 -68.667 57.5 -124.167 110.5 -166.5s111.167 -63.5 174.5 -63.5c43.333 0 79.666 11.333 108.999 34
s44 50.334 44 83.001c0 30.667 -9.83301 55.667 -29.5 75s-68.5 43.666 -146.5 72.999c-135.333 49.333 -222.666 95 -261.999 137s-59 98.667 -59 170c0 89.333 27.5 160.833 82.5 214.5s129.167 80.5 222.5 80.5c47.333 0 92.166 -7 134.499 -21s77.833 -33 106.5 -57
l39 67h78c-0.666992 -16.667 -1.16699 -34 -1.5 -52s-0.5 -45 -0.5 -81c0 -34.667 0.166992 -61.667 0.5 -81s0.833008 -38 1.5 -56h-78c-24 60 -59 107.5 -105 142.5s-97 52.5 -153 52.5c-40 0 -72.5 -9.83301 -97.5 -29.5s-37.5 -44.834 -37.5 -75.501
c0 -50.667 54.667 -93.667 164 -129l61 -20c102 -34.667 176.333 -77.167 223 -127.5s70 -113.166 70 -188.499c0 -89.333 -31.333 -161.5 -94 -216.5s-146 -82.5 -250 -82.5c-58.667 0 -111.667 7.83301 -159 23.5s-85 37.167 -113 64.5l-31 -75h-78zM205.001 -378.998
l39.002 89.999c40 -25.333 79.833 -44.666 119.5 -57.999s77.167 -20 112.5 -20c37.333 0 65 7.33301 83 22s27 37.667 27 69c0 28 -9 49.333 -27 64s-45 22 -81 22c-10 -0.666992 -20 -1.5 -30 -2.5s-20.667 -2.16699 -32 -3.5v196h66v-115
c7.33301 1.33301 15.166 2.33301 23.499 3s20.833 1 37.5 1c58.667 0 104.5 -14.5 137.5 -43.5s49.5 -69.5 49.5 -121.5c0 -56 -19.833 -99.833 -59.5 -131.5s-95.167 -47.5 -166.5 -47.5c-39.333 0 -83.333 6.33301 -132 19s-104.334 31.667 -167.001 57z" />
    <glyph glyph-name="Scaron" unicode="&#x160;" horiz-adv-x="1124" 
d="M82 0c2 33.333 3.5 66.3379 4.5 99.0049s1.5 66 1.5 100c0 44.667 -0.5 86.5 -1.5 125.5s-2.5 75.5 -4.5 109.5h94c28.667 -122 73.167 -213.5 133.5 -274.5s136.166 -91.5 227.499 -91.5c76.667 0 137.334 19.833 182.001 59.5s67 93.5 67 161.5
c0 53.333 -16.667 98 -50 134s-110.666 81.333 -231.999 136c-150.667 67.333 -255 135.166 -313 203.499s-87 153.5 -87 255.5c0 116 38 209.5 114 280.5s176 106.5 300 106.5c71.333 0 133.666 -8.5 186.999 -25.5s102.333 -44.167 147 -81.5l25 88h96
c0 -66.667 0.666992 -131.834 2 -195.501s3.33301 -126.834 6 -189.501h-92c-20 95.333 -60.667 170.166 -122 224.499s-135.333 81.5 -222 81.5c-60.667 0 -109.667 -17.167 -147 -51.5s-56 -78.833 -56 -133.5c0 -76 75 -148.333 225 -217c4 -2 7 -3.33301 9 -4
c201.333 -92 332.5 -172.333 393.5 -241s91.5 -154.334 91.5 -257.001c0 -131.333 -44.667 -236.833 -134 -316.5s-208 -119.5 -356 -119.5c-80.667 0 -150.167 10.667 -208.5 32s-111.5 55 -159.5 101l-25 -100h-96zM264 1863h74l221 -194l221 194h74l-228 -348h-133z" />
    <glyph glyph-name="scaron" unicode="&#x161;" horiz-adv-x="897" 
d="M98 -16c1.33301 20.667 2.33398 42.1689 3.00098 64.502s1 51.166 1 86.499c0 36.667 -0.333008 66.167 -1 88.5s-1.66699 44.166 -3 65.499h74c20.667 -68.667 57.5 -124.167 110.5 -166.5s111.167 -63.5 174.5 -63.5c43.333 0 79.666 11.333 108.999 34
s44 50.334 44 83.001c0 30.667 -9.83301 55.667 -29.5 75s-68.5 43.666 -146.5 72.999c-135.333 49.333 -222.666 95 -261.999 137s-59 98.667 -59 170c0 89.333 27.5 160.833 82.5 214.5s129.167 80.5 222.5 80.5c47.333 0 92.166 -7 134.499 -21s77.833 -33 106.5 -57
l39 67h78c-0.666992 -16.667 -1.16699 -34 -1.5 -52s-0.5 -45 -0.5 -81c0 -34.667 0.166992 -61.667 0.5 -81s0.833008 -38 1.5 -56h-78c-24 60 -59 107.5 -105 142.5s-97 52.5 -153 52.5c-40 0 -72.5 -9.83301 -97.5 -29.5s-37.5 -44.834 -37.5 -75.501
c0 -50.667 54.667 -93.667 164 -129l61 -20c102 -34.667 176.333 -77.167 223 -127.5s70 -113.166 70 -188.499c0 -89.333 -31.333 -161.5 -94 -216.5s-146 -82.5 -250 -82.5c-58.667 0 -111.667 7.83301 -159 23.5s-85 37.167 -113 64.5l-31 -75h-78zM150.001 1384h74
l221 -194l221 194h74l-228 -348h-133z" />
    <glyph glyph-name="Ydieresis" unicode="&#x178;" horiz-adv-x="1466" 
d="M369 -6l-0.00292969 84.001c80 1.33301 133.333 14 160 38s40 71.333 40 142v277l-325 589c-15.333 28.667 -30.5 54 -45.5 76s-27.833 38.333 -38.5 49c-12.667 12 -28.667 21.833 -48 29.5s-43 13.5 -71 17.5v78c60.667 -2 117.834 -3.5 171.501 -4.5
s105.167 -1.5 154.5 -1.5c57.333 0 114.833 0.5 172.5 1.5s115.167 2.5 172.5 4.5l1 -79c-54 -1.33301 -93.167 -8 -117.5 -20s-36.5 -30.667 -36.5 -56c0 -14.667 5.5 -35.334 16.5 -62.001s31.5 -68.334 61.5 -125.001l201 -366l202 333c28 46 48.333 84.667 61 116
s19 58.333 19 81c0 34 -10.667 58 -32 72s-60.333 22.333 -117 25v81c25.333 -2 52.833 -3.5 82.5 -4.5s74.5 -1.5 134.5 -1.5c31.333 0 87.333 1 168 3c14.667 0.666992 25.667 1 33 1c10 0 17.333 0.166992 22 0.5s9.33398 0.833008 14.001 1.5v-82
c-35.333 -5.33301 -65.166 -16.666 -89.499 -33.999s-46.833 -43.333 -67.5 -78l-377 -621v-293c0 -73.333 14.167 -123 42.5 -149s82.5 -39 162.5 -39l-1 -84c-52 2 -107.667 3.5 -167 4.5s-122.333 1.5 -189 1.5c-112 0 -192.5 -0.5 -241.5 -1.5s-91.833 -2.5 -128.5 -4.5
zM423.997 1677c0 30 11.167 56.333 33.5 79s48.5 34 78.5 34c30.667 0 57.167 -11.167 79.5 -33.5s33.5 -48.833 33.5 -79.5c0 -32.667 -10.5 -59.667 -31.5 -81s-48.167 -32 -81.5 -32c-32.667 0 -59.5 10.667 -80.5 32s-31.5 48.333 -31.5 81zM808.997 1677
c0 30 11.167 56.333 33.5 79s48.5 34 78.5 34c30.667 0 57.167 -11.167 79.5 -33.5s33.5 -48.833 33.5 -79.5c0 -32.667 -10.5 -59.667 -31.5 -81s-48.167 -32 -81.5 -32c-32 0 -58.667 10.833 -80 32.5s-32 48.5 -32 80.5z" />
    <glyph glyph-name="Zcaron" unicode="&#x17d;" horiz-adv-x="1237" 
d="M37 88l751 1178h-204c-138.667 0 -235.667 -19.667 -291 -59s-91 -110 -107 -212h-77v373h1052v-88l-751 -1171h270c121.333 0 213.333 24.333 276 73s103 127.334 121 236.001h80l-20 -418h-1100v88zM319 1863h74l221 -194l221 194h74l-228 -348h-133z" />
    <glyph glyph-name="zcaron" unicode="&#x17e;" horiz-adv-x="895" 
d="M41 0l0.000976562 68.001l477 747h-123c-68.667 0 -121.834 -16.333 -159.501 -49s-63.5 -85.334 -77.5 -158.001h-86l22 293h752v-76l-469 -735h133c85.333 0 146.333 16 183 48s63 90.333 79 175h82l-20 -313h-793zM150.001 1384h74l221 -194l221 194h74l-228 -348
h-133z" />
    <glyph glyph-name="florin" unicode="&#x192;" horiz-adv-x="1128" 
d="M219 692l14.001 90.002h177c14.667 198.667 60.5 351.5 137.5 458.5s179.167 160.5 306.5 160.5c63.333 0 115.666 -14.333 156.999 -43s62 -64.334 62 -107.001c0 -29.333 -10.833 -54 -32.5 -74s-49.167 -30 -82.5 -30c-22.667 0 -42 5.66699 -58 17s-31.333 30 -46 56
c-4 8 -9.33301 19.667 -16 35c-14 33.333 -30.667 50 -50 50c-26.667 0 -46.334 -34 -59.001 -102s-22.667 -208.333 -30 -421h186l-11 -90h-184c-16.667 -432 -66 -746.833 -148 -944.5s-203.333 -296.5 -364 -296.5c-58.667 0 -107.5 15.333 -146.5 46s-58.5 68 -58.5 112
c0 31.333 10.667 56.5 32 75.5s49 28.5 83 28.5c24 0 44.667 -6.33301 62 -19s30 -30.667 38 -54c2 -6 4.33301 -14.667 7 -26c10.667 -43.333 31.667 -65 63 -65c26.667 0 47.334 22.667 62.001 68s24.667 117.666 30 216.999l49 858h-180z" />
    <glyph glyph-name="circumflex" unicode="&#x2c6;" 
d="M213 1036l229 348h133l228 -348h-74l-221 195l-221 -195h-74z" />
    <glyph glyph-name="caron" unicode="&#x2c7;" 
d="M213 1384h74l221 -194l221 194h74l-228 -348h-133z" />
    <glyph glyph-name="breve" unicode="&#x2d8;" 
d="M207 1350h65c12 -47.333 36.5 -81.333 73.5 -102s91.167 -31 162.5 -31s125.333 10.333 162 31s60.334 54.667 71.001 102h66c-14.667 -92 -47.334 -161.5 -98.001 -208.5s-117.667 -70.5 -201 -70.5c-84.667 0 -152.5 23.5 -203.5 70.5s-83.5 116.5 -97.5 208.5z" />
    <glyph glyph-name="dotaccent" unicode="&#x2d9;" 
d="M395 1198c0 32 11.668 60.166 35.001 84.499s50.666 36.5 81.999 36.5s59 -12.167 83 -36.5s36 -52.5 36 -84.5c0 -33.333 -11.333 -61.166 -34 -83.499s-51 -33.5 -85 -33.5s-62 11 -84 33s-33 50 -33 84z" />
    <glyph glyph-name="ring" unicode="&#x2da;" 
d="M371 1260c0 -40.667 13.5 -74.834 40.5 -102.501s60.5 -41.5 100.5 -41.5s73.5 13.833 100.5 41.5s40.5 61.834 40.5 102.501c0 39.333 -13.5 72.666 -40.5 99.999s-60.5 41 -100.5 41s-73.5 -13.667 -100.5 -41s-40.5 -60.666 -40.5 -99.999zM264 1260
c0 69.333 24 127.833 72 175.5s106.667 71.5 176 71.5s128 -23.833 176 -71.5s72 -106.167 72 -175.5c0 -70 -24 -128.833 -72 -176.5s-106.667 -71.5 -176 -71.5s-128 23.833 -176 71.5s-72 106.5 -72 176.5z" />
    <glyph glyph-name="ogonek" unicode="&#x2db;" 
d="M631 35c-55.333 -42.667 -98.166 -86.668 -128.499 -132.001s-45.5 -87.333 -45.5 -126c0 -40 7.66699 -70.5 23 -91.5s37.666 -31.5 66.999 -31.5c24.667 0 47 5.83301 67 17.5s39.333 29.834 58 54.501l28 -17c-24 -50 -55 -88.833 -93 -116.5s-80 -41.5 -126 -41.5
c-47.333 0 -85.333 14 -114 42s-43 65.333 -43 112c0 56 21.333 111 64 165s108 109 196 165h47z" />
    <glyph glyph-name="tilde" unicode="&#x2dc;" 
d="M791 1354c-14.667 -75.333 -38.4971 -132.5 -71.4971 -171.5s-74.167 -58.5 -123.5 -58.5c-8 0 -16.167 0.5 -24.5 1.5s-17.5 2.83301 -27.5 5.5l-106 26c-11.333 2.66699 -21.5 4.66699 -30.5 6s-16.5 2 -22.5 2c-28 0 -49.667 -6.66699 -65 -20
s-27.666 -36.666 -36.999 -69.999h-58c15.333 78 39.166 136.167 71.499 174.5s74.166 57.5 125.499 57.5c10.667 0 21.5 -0.833008 32.5 -2.5s21.167 -3.83398 30.5 -6.50098l108 -26c8.66699 -2 17.167 -3.5 25.5 -4.5s17.166 -1.5 26.499 -1.5
c22.667 0 41.167 7.16699 55.5 21.5s25.166 36.5 32.499 66.5h58z" />
    <glyph glyph-name="hungarumlaut" unicode="&#x2dd;" 
d="M567 1036l173.999 283c16 26 31.833 45.167 47.5 57.5s32.834 18.5 51.501 18.5c20.667 0 37.667 -7.16699 51 -21.5s20 -32.5 20 -54.5c0 -14 -5 -28.5 -15 -43.5s-26 -31.833 -48 -50.5l-221 -189h-60zM321.999 1036l132.999 274.998
c13.333 28.667 27.833 49.834 43.5 63.501s33.167 20.5 52.5 20.5c18.667 0 35.334 -7.16699 50.001 -21.5s22 -31.166 22 -50.499c0 -12.667 -3.66699 -25.167 -11 -37.5s-22.333 -30.5 -45 -54.5l-184 -195h-61z" />
    <glyph glyph-name="Omega" unicode="&#x3a9;" horiz-adv-x="1569" 
d="M1133 258l-0.00195312 -14.001h290l43 145h78l-117 -389h-530c65.333 144.667 114.5 288.5 147.5 431.5s49.5 283.833 49.5 422.5c0 186 -25.5 325 -76.5 417s-128.167 138 -231.5 138s-180.666 -46.167 -231.999 -138.5s-77 -231.166 -77 -416.499
c0 -138.667 16.667 -279.334 50 -422.001s83 -286.667 149 -432h-533l-116 389h75l45 -145h289v14c-109.333 58.667 -193.666 138.334 -252.999 239.001s-89 215 -89 343c0 190 65.5 347 196.5 471s296.167 186 495.5 186c200 0 365.167 -62 495.5 -186
s195.5 -281 195.5 -471c0 -127.333 -29.667 -241 -89 -341s-144.333 -180.333 -255 -241z" />
    <glyph glyph-name="pi" unicode="&#x3c0;" horiz-adv-x="1477" 
d="M1444 885l-59.999 -275.005h-348c-2.66699 -42.667 -4.66699 -81.667 -6 -117s-2 -62.333 -2 -81c0 -31.333 1.33301 -72.5 4 -123.5s4 -86.5 4 -106.5c0 -77.333 -12.833 -134.166 -38.5 -170.499s-65.834 -54.5 -120.501 -54.5c-34.667 0 -61.834 10.833 -81.501 32.5
s-29.5 51.167 -29.5 88.5c0 48.667 24.333 130.334 73 245.001s82.334 210.334 101.001 287.001h-375c-2.66699 -45.333 -4.66699 -85.666 -6 -120.999s-2 -61 -2 -77c0 -32 1 -73.333 3 -124s3 -86 3 -106c0 -77.333 -12.833 -134.166 -38.5 -170.499
s-66.167 -54.5 -121.5 -54.5c-33.333 0 -59.666 10.667 -78.999 32s-29 51 -29 89c0 49.333 24 131.333 72 246s81.333 210 100 286h-156c-78.667 0 -134.334 -10.667 -167.001 -32s-54.667 -60.333 -66 -117h-64c30 158.667 76 269 138 331s156.667 93 284 93h1008z" />
    <glyph glyph-name="endash" unicode="&#x2013;" 
d="M0 358v191h1024v-191h-1024z" />
    <glyph glyph-name="emdash" unicode="&#x2014;" horiz-adv-x="2048" 
d="M0 358v191h2048v-191h-2048z" />
    <glyph glyph-name="quoteleft" unicode="&#x2018;" horiz-adv-x="559" 
d="M446 1382c-80 -36.667 -139.667 -80.835 -179 -132.502s-60 -112.5 -62 -182.5c16.667 12.667 33.834 22 51.501 28s36.5 9 56.5 9c42.667 0 77 -14.167 103 -42.5s39 -65.5 39 -111.5c0 -45.333 -16.5 -82.833 -49.5 -112.5s-74.5 -44.5 -124.5 -44.5
c-59.333 0 -106.333 21 -141 63s-52 99.333 -52 172c0 96.667 27.167 179.334 81.5 248.001s137.166 125.334 248.499 170.001z" />
    <glyph glyph-name="quoteright" unicode="&#x2019;" horiz-adv-x="559" 
d="M111 836c79.333 34.667 139.168 78.167 179.501 130.5s61.5 113.833 63.5 184.5c-16.667 -12.667 -33.834 -22 -51.501 -28s-36.5 -9 -56.5 -9c-42 0 -75.833 14.167 -101.5 42.5s-38.5 65.5 -38.5 111.5s16.167 83.667 48.5 113s73.833 44 124.5 44
c59.333 0 106.5 -21 141.5 -63s52.5 -99.333 52.5 -172c0 -96 -27.333 -178.5 -82 -247.5s-138 -125.833 -250 -170.5z" />
    <glyph glyph-name="quotesinglbase" unicode="&#x201a;" horiz-adv-x="559" 
d="M111 -279c79.333 34.667 139.168 78.1689 179.501 130.502s61.5 113.833 63.5 184.5c-16.667 -12 -33.834 -21 -51.501 -27s-36.5 -9 -56.5 -9c-42 0 -75.833 14 -101.5 42s-38.5 65.333 -38.5 112c0 46 16.167 83.667 48.5 113s73.833 44 124.5 44
c59.333 0 106.5 -21.167 141.5 -63.5s52.5 -99.5 52.5 -171.5c0 -96.667 -27.333 -179.334 -82 -248.001s-138 -125.334 -250 -170.001z" />
    <glyph glyph-name="quotedblleft" unicode="&#x201c;" horiz-adv-x="1130" 
d="M1024 1382c-80.667 -37.333 -141 -81.832 -181 -133.499s-61 -111.834 -63 -180.501c16.667 12 34 21 52 27s37 9 57 9c42 0 76 -14.167 102 -42.5s39 -65.5 39 -111.5s-16.167 -83.667 -48.5 -113s-73.5 -44 -123.5 -44c-59.333 0 -106.5 21 -141.5 63
s-52.5 99.333 -52.5 172c0 96 27.333 178.5 82 247.5s137.667 125.833 249 170.5zM453 1382c-80.667 -36.667 -140.667 -80.667 -180 -132s-60 -112 -62 -182c16.667 12 33.667 21 51 27s35.666 9 54.999 9c42.667 0 77 -14.167 103 -42.5s39 -65.5 39 -111.5
s-16.167 -83.667 -48.5 -113s-73.5 -44 -123.5 -44c-59.333 0 -106.666 21 -141.999 63s-53 99.333 -53 172c0 96 27.333 178.5 82 247.5s138 125.833 250 170.5z" />
    <glyph glyph-name="quotedblright" unicode="&#x201d;" horiz-adv-x="1130" 
d="M100 834c80.667 36.667 141 81.1699 181 133.503s61 113.166 63 182.499c-16.667 -12 -33.834 -21 -51.501 -27s-36.5 -9 -56.5 -9c-42.667 0 -77 14.167 -103 42.5s-39 65.5 -39 111.5c0 45.333 16.5 82.833 49.5 112.5s74.5 44.5 124.5 44.5
c59.333 0 106.333 -21 141 -63s52 -99.333 52 -172c0 -96.667 -27.167 -179.334 -81.5 -248.001s-137.166 -125.334 -248.499 -170.001zM668 834.003c80.667 35.333 141.169 79.168 181.502 131.501s61.5 114.166 63.5 185.499c-16.667 -12.667 -33.834 -22 -51.501 -28
s-36.5 -9 -56.5 -9c-42.667 0 -76.834 14.167 -102.501 42.5s-38.5 65.5 -38.5 111.5s16 83.667 48 113s73.333 44 124 44c59.333 0 106.5 -21 141.5 -63s52.5 -99.333 52.5 -172c0 -96 -27.333 -178.5 -82 -247.5s-138 -125.833 -250 -170.5z" />
    <glyph glyph-name="quotedblbase" unicode="&#x201e;" horiz-adv-x="1130" 
d="M670 -279c79.333 34.667 139.169 78.1689 179.502 130.502s61.5 113.833 63.5 184.5c-16.667 -12 -33.834 -21 -51.501 -27s-36.5 -9 -56.5 -9c-42.667 0 -76.834 14.167 -102.501 42.5s-38.5 65.5 -38.5 111.5s16 83.667 48 113s73.333 44 124 44
c59.333 0 106.5 -21.167 141.5 -63.5s52.5 -99.5 52.5 -171.5c0 -96.667 -27.333 -179.334 -82 -248.001s-138 -125.334 -250 -170.001zM102.003 -278.998c80 36 139.833 80 179.5 132s60.5 113 62.5 183c-16.667 -12 -33.834 -21 -51.501 -27s-36.5 -9 -56.5 -9
c-42.667 0 -77 14.167 -103 42.5s-39 65.5 -39 111.5c0 45.333 16.5 82.833 49.5 112.5s74.5 44.5 124.5 44.5c59.333 0 106.333 -21 141 -63s52 -99.333 52 -172c0 -96.667 -27.167 -179.5 -81.5 -248.5s-137.166 -125.5 -248.499 -169.5z" />
    <glyph glyph-name="dagger" unicode="&#x2020;" 
d="M484 -332c-1.33301 156 -10.3262 304.835 -26.9932 446.502s-41.334 278.167 -74.001 409.5c34 55.333 59.5 112 76.5 170s25.5 116 25.5 174v21c-44.667 -1.33301 -97.5 -16.333 -158.5 -45s-104.167 -43 -129.5 -43c-35.333 0 -63.333 9.66699 -84 29
s-31 45.666 -31 78.999s11.167 60.5 33.5 81.5s50.833 31.5 85.5 31.5c27.333 0 71.666 -13.5 132.999 -40.5s111.666 -40.833 150.999 -41.5v23c0 63.333 -14.667 130.666 -44 201.999s-44 113.666 -44 126.999c0 32.667 10.667 59.334 32 80.001s49 31 83 31
c35.333 0 63.666 -10 84.999 -30s32 -46.333 32 -79c0 -6 -14.667 -46.333 -44 -121s-44 -148.334 -44 -221.001v-12h4c43.333 0 94.666 13.667 153.999 41s101.333 41 126 41c36.667 0 65 -9.66699 85 -29s30 -46.666 30 -81.999c0 -36 -10 -63.667 -30 -83
s-48.333 -29 -85 -29c-26.667 0 -69.834 13.667 -129.501 41s-111.834 43 -156.501 47c4 -79.333 14.667 -148.833 32 -208.5s41.333 -111.167 72 -154.5c-32 -110 -56 -236.833 -72 -380.5s-24 -302.167 -24 -475.5h-63z" />
    <glyph glyph-name="daggerdbl" unicode="&#x2021;" 
d="M383 524c34 55.333 59.5059 111.998 76.5059 169.998s25.5 116 25.5 174v21c-44.667 -1.33301 -97.5 -16.333 -158.5 -45s-104.167 -43 -129.5 -43c-35.333 0 -63.333 9.66699 -84 29s-31 45.666 -31 78.999s11.167 60.5 33.5 81.5s50.833 31.5 85.5 31.5
c27.333 0 71.666 -13.5 132.999 -40.5s111.666 -40.833 150.999 -41.5v23c0 63.333 -14.667 130.666 -44 201.999s-44 113.666 -44 126.999c0 32.667 10.667 59.334 32 80.001s49 31 83 31c35.333 0 63.666 -10 84.999 -30s32 -46.333 32 -79c0 -6 -14.667 -46.333 -44 -121
s-44 -148.334 -44 -221.001v-12h4c43.333 0 94.666 13.667 153.999 41s101.333 41 126 41c36.667 0 65 -9.66699 85 -29s30 -46.666 30 -81.999c0 -36 -10 -63.667 -30 -83s-48.333 -29 -85 -29c-26.667 0 -69.834 13.667 -129.501 41s-111.834 43 -156.501 47
c4 -79.333 14.667 -148.833 32 -208.5s41.333 -111.167 72 -154.5c-34.667 -50.667 -60.667 -105.5 -78 -164.5s-26 -121.5 -26 -187.5v-10c44.667 1.33301 97.5 16.333 158.5 45s104.167 43 129.5 43c35.333 0 63 -9.66699 83 -29s30 -46 30 -80
c0 -32.667 -11.167 -59.5 -33.5 -80.5s-50.833 -31.5 -85.5 -31.5c-27.333 0 -71.166 13.333 -131.499 40s-110.5 40.334 -150.5 41.001v-22c0 -63.333 14.667 -130.666 44 -201.999s44 -114 44 -128c0 -32.667 -10.667 -59.167 -32 -79.5s-49 -30.5 -83 -30.5
c-35.333 0 -64 10 -86 30s-33 46 -33 78c0 6 15 46.5 45 121.5s45 148.5 45 220.5v13c-44 0 -96.167 -13.333 -156.5 -40s-102.833 -40 -127.5 -40c-37.333 0 -66.166 9.33301 -86.499 28s-30.5 45.334 -30.5 80.001c0 36 10.167 63.833 30.5 83.5s49.166 29.5 86.499 29.5
c26.667 0 70 -13.833 130 -41.5s112 -43.167 156 -46.5c-4 76.667 -14.333 144.334 -31 203.001s-40.334 111 -71.001 157z" />
    <glyph glyph-name="bullet" unicode="&#x2022;" horiz-adv-x="1208" 
d="M307 762c0 82 28.999 151.666 86.999 208.999s128 86 210 86c81.333 0 150.833 -28.833 208.5 -86.5s86.5 -127.167 86.5 -208.5s-29.167 -151.166 -87.5 -209.499s-128.166 -87.5 -209.499 -87.5c-82 0 -151.667 29 -209 87s-86 128 -86 210z" />
    <glyph glyph-name="ellipsis" unicode="&#x2026;" horiz-adv-x="2048" 
d="M170 141c0 47.333 16.667 87.5 50 120.5s74 49.5 122 49.5c47.333 0 87.5 -16.333 120.5 -49s49.5 -73 49.5 -121c0 -46.667 -16.5 -86.667 -49.5 -120s-73.167 -50 -120.5 -50s-87.833 16.667 -121.5 50s-50.5 73.333 -50.5 120zM852 141c0 47.333 16.667 87.5 50 120.5
s74 49.5 122 49.5c47.333 0 87.5 -16.333 120.5 -49s49.5 -73 49.5 -121c0 -46.667 -16.5 -86.667 -49.5 -120s-73.167 -50 -120.5 -50s-87.833 16.667 -121.5 50s-50.5 73.333 -50.5 120zM1536 141c0 47.333 16.667 87.5 50 120.5s74 49.5 122 49.5
c47.333 0 87.5 -16.333 120.5 -49s49.5 -73 49.5 -121c0 -46.667 -16.5 -86.667 -49.5 -120s-73.167 -50 -120.5 -50s-87.833 16.667 -121.5 50s-50.5 73.333 -50.5 120z" />
    <glyph glyph-name="perthousand" unicode="&#x2030;" horiz-adv-x="2626" 
d="M1817 291c0 53.333 9.33301 108.001 28 164.001s44 105.667 76 149c42 55.333 89.5 97.166 142.5 125.499s109.833 42.5 170.5 42.5c82 0 146.333 -26.333 193 -79s70 -125.334 70 -218.001c0 -59.333 -9.5 -120.166 -28.5 -182.499s-45.167 -117.5 -78.5 -165.5
c-38 -56 -80.667 -97.333 -128 -124s-101 -40 -161 -40c-84.667 0 -153.167 30 -205.5 90s-78.5 139.333 -78.5 238zM2316 676.001c-31.333 0 -62 -14.001 -92 -42.001s-58.667 -69.333 -86 -124c-24.667 -48 -43.834 -98.333 -57.5 -151
c-13.667 -52.667 -20.5 -102 -20.5 -148c0 -48.667 11.333 -87.5 34 -116.5s53 -43.5 91 -43.5c60.667 0 117.167 45 169.5 135s78.5 190.333 78.5 301c0 58.667 -10.5 104.834 -31.5 138.501s-49.5 50.5 -85.5 50.5zM631 1307c-30.667 0 -60.165 -12.6689 -88.498 -38.002
s-56.833 -64.666 -85.5 -117.999c-26.667 -49.333 -47.334 -101.5 -62.001 -156.5s-22 -105.167 -22 -150.5c0 -48.667 11.5 -88.167 34.5 -118.5s52.5 -45.5 88.5 -45.5c32 0 62.167 11 90.5 33s54.833 54.667 79.5 98c25.333 45.333 45.666 95.833 60.999 151.5
s23 108.834 23 159.501c0 54.667 -11.167 99.167 -33.5 133.5s-50.833 51.5 -85.5 51.5zM379.002 -102.002l804.996 1353c-40 -20.667 -79.333 -36 -118 -46s-78.667 -15 -120 -15c-32 0 -60.333 3.16699 -85 9.5s-48 16.166 -70 29.499
c6.66699 -30.667 11.334 -55.334 14.001 -74.001s4 -35.667 4 -51c0 -58 -9.5 -117.833 -28.5 -179.5s-44.167 -115.834 -75.5 -162.501c-39.333 -56.667 -82.833 -98.834 -130.5 -126.501s-100.5 -41.5 -158.5 -41.5c-87.333 0 -157 29.833 -209 89.5
s-78 139.834 -78 240.501c0 52 8.66699 105 26 159s41.333 102 72 144c40.667 56 88.334 99.333 143.001 130s112.334 46 173.001 46c27.333 0 54.5 -4 81.5 -12s52.167 -19.667 75.5 -35l22 -14c90.667 -62 171 -93 241 -93c62 0 127.333 19.5 196 58.5
s132.334 93.167 191.001 162.5h75l-933 -1572h-113zM1499 676.001c-30.667 0 -60.832 -14.001 -90.499 -42.001s-58.167 -69.333 -85.5 -124c-24.667 -48 -43.834 -98.333 -57.501 -151s-20.5 -102 -20.5 -148c0 -48.667 11.333 -87.5 34 -116.5s53 -43.5 91 -43.5
c60.667 0 117.167 45 169.5 135s78.5 190.333 78.5 301c0 58.667 -10.667 104.834 -32 138.501s-50.333 50.5 -87 50.5zM999 291c0 53.333 9.50098 108.002 28.501 164.002s44.5 105.667 76.5 149c42 55.333 89.333 97.166 142 125.499s109 42.5 169 42.5
c82 0 146.5 -26.333 193.5 -79s70.5 -125.334 70.5 -218.001c0 -58.667 -9.66699 -119.167 -29 -181.5s-45.666 -117.833 -78.999 -166.5c-38.667 -56 -81.334 -97.333 -128.001 -124s-99.667 -40 -159 -40c-84.667 0 -153.334 30 -206.001 90s-79 139.333 -79 238z" />
    <glyph glyph-name="guilsinglleft" unicode="&#x2039;" horiz-adv-x="616" 
d="M115 465c83.333 66 164.499 135.666 243.499 208.999s121.167 110 126.5 110c4.66699 0 8.66699 -1.5 12 -4.5s5 -6.83301 5 -11.5c0 -12.667 -15.667 -43.5 -47 -92.5s-80.666 -119.167 -147.999 -210.5c59.333 -79.333 106.666 -146.333 141.999 -201s53 -88 53 -100
c-0.666992 -6 -2 -10.167 -4 -12.5s-5.66699 -3.83301 -11 -4.5c-6 0 -49.167 36.833 -129.5 110.5s-161.166 142.834 -242.499 207.501z" />
    <glyph glyph-name="guilsinglright" unicode="&#x203a;" horiz-adv-x="616" 
d="M502 465c-83.333 -65.333 -164.668 -134.667 -244.001 -208s-121.666 -110 -126.999 -110c-5.33301 0.666992 -9.33301 2.16699 -12 4.5s-4 5.83301 -4 10.5c0 12.667 15.667 43.5 47 92.5s80.333 119.167 147 210.5c-58.667 78 -105.667 145 -141 201s-53 90 -53 102
c0 5.33301 1.33301 9.33301 4 12s6.66699 4 12 4c6 0 48.667 -36.833 128 -110.5s160.333 -143.167 243 -208.5z" />
    <glyph glyph-name="franc" unicode="&#x20a3;" horiz-adv-x="2140" 
d="M66 -8l0.00488281 84.002c81.333 2.66699 135.333 17.667 162 45s40 88.666 40 183.999v787c0 79.333 -13.667 132.5 -41 159.5s-81 41.167 -161 42.5v84c74 -3.33301 157.833 -5.83301 251.5 -7.5s206.834 -2.5 339.501 -2.5c108.667 0 207.5 0.666992 296.5 2
s171.833 3.33301 248.5 6l12 -358h-84c-15.333 96 -53.5 162.667 -114.5 200s-169.5 56 -325.5 56c-44.667 0 -73.834 -4.83301 -87.501 -14.5s-20.5 -29.5 -20.5 -59.5v-448h34c77.333 0 135.833 18.167 175.5 54.5s65.167 95.166 76.5 176.499h88v-30
c-2.66699 -121.333 -4 -207.666 -4 -258.999c0 -44.667 0.333008 -89.334 1 -134.001s1.66699 -90.667 3 -138h-88c-12 88 -36.5 149.5 -73.5 184.5s-94.833 52.5 -173.5 52.5c-4 0 -10.333 -0.333008 -19 -1s-15.334 -1 -20.001 -1v-358c0 -98 14 -158.833 42 -182.5
s85.333 -37.167 172 -40.5l1 -84c-32.667 2.66699 -70.334 4.66699 -113.001 6s-92.334 2 -149.001 2c-138.667 -0 -244.834 -0.666992 -318.501 -2s-123.834 -3.33301 -150.501 -6zM1302 -3.99805l-0.00195312 75.999c52.667 5.33301 87.334 15 104.001 29s25 39.667 25 77
v418c0 73.333 -9 122.5 -27 147.5s-51 37.833 -99 38.5l-1 72c77.333 8.66699 144.5 18.834 201.5 30.501s105.5 25.5 145.5 41.5h34l17 -178c36.667 54 77.167 95.333 121.5 124s89.833 43 136.5 43c53.333 0 94.666 -12.667 123.999 -38s44 -61 44 -107
c0 -38 -11.5 -68.333 -34.5 -91s-53.833 -34 -92.5 -34c-35.333 0 -68 17.833 -98 53.5s-51.333 53.5 -64 53.5c-28 0 -54.833 -20.5 -80.5 -61.5s-38.5 -85.5 -38.5 -133.5v-385c0 -38.667 9.5 -65 28.5 -79s57.5 -21 115.5 -21l-1 -76
c-73.333 1.33301 -131.166 2.33301 -173.499 3s-81.166 1 -116.499 1c-58 0 -107.167 -0.333008 -147.5 -1s-81.5 -1.66699 -123.5 -3z" />
    </font>
</defs>
</svg>
